EASY
BASIC
ADVANCED
EXPERT
MASTER
(175){1}
1h[1:1],8<1[4:7],
,,
{8}3-5[8:1],,6,6,6,,45,,6-4[8:1],,3,3,3,,45,,
3-5[8:1],,6,6,6,,45,,6-4[8:1],,3,3,3,,45,,
2-4[8:1]/5,,5,6,7,,46,,7-5[8:1],,4,3,2,,35,,
2-4[8:1],,5,6,7,,46,,7-5[8:1],,4,3,2,,8b,,
3^6[8:1],,7,7,6^3[8:1],,2,2,1^4[8:1],,8v5[8:1],,1,,45,,
6^3[8:1],,2,2,3^6[8:1],,7,7,8^5[8:1],,1v4[8:1],,8,,45,,
3^6[8:1],,7,7,6^3[8:1],,2,2,1-5[8:1],,8-4[8:1],,1,,45,,
6^3[8:1],,2,2,3^6[8:1],,7,7,1-5[8:1]/8-4[8:1],,,,27,,,,
3-6[8:1],,8,8,{4}7-2[8:1],3h[4:1],4-8[8:1],1-5[8:1],8,27,
6-3[8:1],{8}1,1,{4}2-7[8:1],6h[4:1],5-1[8:1],8-4[8:1],1,27,
3-6[8:1],{8}8,8,{4}7-2[8:1],3h[4:1],4-8[8:1],1-5[8:1],7-2[8:1],3>6[2:1],
4,,,4/6<3[2:1],5,,,45,
1-4[8:1]/2,2,7/8-5[8:1],7,5-8[8:1]/6,6,3/4-1[8:1],3,
7-3[8:1],1-5[8:1],8-4[8:1],1>6[4:1],7,{8},8,{4}27,,
7/8-5[8:1],6,1-4[8:1]/2,3,3/4-1[8:1],2,5-8[8:1]/6,7,
{8}1^4[8:1],1,7,7,8^5[8:1],8,4>5[2:1],4,{4}5,,,45,
2-6[8:1]/5,7-3[8:1],4-1[8:1],6<3[4:1],1,{8},18,27,,4-8[8:1]/5,6,
7,,2/5-1[8:1],,4,,1-5[8:1]/2-6[8:1],,,,78,78,16,,,,
37,,2-5[8:1]/6-1[8:1],26,,,4/8<3[4:1],,2,,,1,28,,6,6,
57,,2-5[8:1]/4,,7-4[8:1],7,3>6[2:1],3,{4}4,,,,
4/7-3[8:1],2-6[8:1],5-8[8:1],3>6[4:1],8,{8},18,27,,4/5-1[8:1],3,
2,,4-8[8:1]/7,,5,,7^4[8:1]/8^3[8:1],,,,12,12,38,,,,
26,,3-8[8:1]/7-4[8:1],37,,,1>6[4:1]/5,,7,,,8,17,,3,3,
24,,5/7-4[8:1],,2-5[8:1],2,6<3[2:1],6,{4}5,,,,
4>5[4:5]/5,,5,5,4,4,3,3,
4/5<4[4:5],,4,4,5,5,6,7,
1>8[4:5]/8,,8,8,1,1,2,2,
1/8<1[4:5],,1,1,8,,,1b,
2-4[8:1]/5,,2-4[8:1]/5,,2-4[8:1]/5,5,2-4[8:1]/5,6,
4/7-5[8:1],,4/7-5[8:1],,4/7-5[8:1],4,4/7-5[8:1],3,
2-4[8:1]/5h[4:1],,2-4[8:1]/5h[4:1],,2-4[8:1]/5,5,2-4[8:1]/5,6,
4h[4:1]/7-5[8:1],,4h[4:1]/7-5[8:1],,4/7-5[8:1],4,47,1b,
6-3[8:1],{8}1,1,{4}2-5[8:1],6h[4:1],5^2[8:1],8-4[8:1],1,26,
3-6[8:1],{8}8,8,{4}7-4[8:1],3h[4:1],4^7[8:1],1-5[8:1],8,37,
6-3[8:1],{8}1,1,{4}2-5[8:1],6h[4:1],5-1[8:1],8-4[8:1],2-7[8:1],6<3[2:1],
5,,,3>6[2:1]/5,4,,,45,
7/8-4[8:1],7,1-5[8:1]/2,2,3/4-8[8:1],3,5-1[8:1]/6,6,
2-6[8:1],8-4[8:1],1-5[8:1],8<3[4:1],2,{8},1,{4}27,,
1-5[8:1]/2,3,7/8-4[8:1],6,5-1[8:1]/6,7,3/4-8[8:1],2,
{8}8^5[8:1],8,2,2,1^4[8:1],1,5<4[2:1],5,{4}4,,,45,
4/7-3[8:1],2-6[8:1],5-8[8:1],3>6[4:1],8,{8},18,27,,4/6-1[8:1],3,
2,,3-8[8:1]/7,,5,,5-1[8:1]/6-2[8:1],,,,12,12,38,,,,
26,,3-8[8:1]/7-4[8:1],37,,,1>6[4:1]/5,,7,,,8,17,,3,3,
24,,5/7-4[8:1],,2-5[8:1],2,6<3[2:1],6,{4}5,,,,
2-6[8:1]/5,7-3[8:1],4-1[8:1],6<3[4:1],1,{8},18,27,,4-8[8:1]/5,6,
7,,2/5-1[8:1],,4,,3^8[8:1]/4^7[8:1],,,,78,78,16,,,,
37,,2-5[8:1]/6-1[8:1],26,,,4/8<3[4:1],,2,,,1,18,,6,6,
57,,2-5[8:1]/4,,7-4[8:1],7,3>6[2:1],3,{4}4,,,4/5<3[2:3],
4,4,5,5,6,6,5,4>5[1:1],
5,,,,4,4,{16}4,,,5,4,,36,,
{1}2b/7b,,,,E
Re:MASTER
(175){2}
4>5[4:11]/5h[2:1],,4,4,
3,,4p5[2:1],,
{8}3/4h[8:3],,,3,34,,,4/5h[4:1],,4,,5,56,,,,
5h[8:3]/6,,,6,56,,,4h[4:1]/5,,5,,4,{4}3-1[8:1]/4-6[8:1],,
2/4h[4:1],3,45,46,5h[4:1]/7,6,45,35,
2/4h[4:1],3,45,57,68,13,2b/7b,,
6h[4:1],{8}5,5,6h[4:1],,8,8pp3[2:1],7,,6,,5,,24,,
3h[4:1],,4,4,3h[4:1],,1,1qq6[2:1],2,,3,,4,,57,,
6h[4:1],,5,5,6h[4:1],,8,8pp3[2:1],7,,6,,5,,24,,
3h[4:1],,4,4,3h[4:1],,1,8,2p5[4:1]/7q4[4:1],,,,,,3b/6b,,
7h[4:1],,8,1,2h[4:1],,1,1qq6[2:1],2,,3,,4,,57,,
6h[4:1],,5,4,3h[4:1],,4,4pp7[2:1],3,,2,,1,,68,,
7h[4:1],,8,1,2h[4:1],,1,1qq6[2:1],{4}2,3,4,57,
3h[4:3],1,8,7,{16}7,8,7,,2,1,{8}2,1-4[8:1]/8-5[8:1],27,,,
3/6h[4:1],,5,,1/6h[4:1],,5,,4/8h[4:1],,1-5[8:1],1,{4}7-4[8:1],,
3h[4:1]/5,8,3h[4:1]/4,1,36,{8}78,7,18,{16},27,{4}2b/7b,
3h[4:1]/6,4,3h[4:1]/8,4,1h[4:1]/5,{8}8-4[8:1],8,2-5[8:1],,,,
4h[4:1]/6^1[8:1],,,4,3^8[8:1]/5h[4:1],,,5,5,{16}3,4,2,,6,5,{8}7,18,3b/6b,,
4-1[8:1]/5-8[8:1],,4b/5b,,27,,4/5>8[4:1],,2h[8:3],,,6,3b/7b,,2,1,
7h[4:1]/8-5[8:1],,8,,1-4[8:1]/2h[4:1],,1<4[4:1],,6h[8:3],,,2,3b/7b,,,,
28,,6/8-4[8:1],17,2-6[8:1]/8,,2/5<3[16:5],,8h[4:1],,,8,14,,5,6,
{4}7-4[8:1]/8,5qq8[2:1],,,5qq4[8:3]*pp6[8:3],,,3b/7b,
4-1[8:1]/5-8[8:1],4b/5b,27,4<1[4:1]/5,7h[8:3],{8},3,2b/6b,,7,8,
1-4[8:1]/2h[4:1],,1,,7h[4:1]/8-5[8:1],,8>5[4:1],,3h[8:3],,,7,2b/6b,,,,
17,,1-5[8:1]/3,28,1/7-3[8:1],,4>6[16:5]/7,,1h[4:1],,,1,58,,1,2,
{4}3/4-1[8:1],4/6pp2[8:3],,,1>8[8:5]/8b,,,,
6h[4:1],{8}5,4,{4}3h[4:1],4>8[16:5],5h[4:1],,57,45,
3h[4:1],{8}4,5,{4}6h[4:1],5<1[16:5],4h[4:1],,24,46,
7h[4:1],{8}6,5,{4}4h[4:1],5>1[16:5],6h[4:1],,17,35,
{1}3/6<3[2:1],2V41[2:1]/7V58[2:1],
{8}56,,,6,56,,,56,,45,,3,3h[4:1]/4h[4:1],,,,
34,,,3,34,,,34,,45,,6,{4}5-3[8:1]/6-8[8:1],,
2h[2:1],4,5,68,7h[2:1],5,4,13,
34,16,56,38,{8}8,1,8,,3b/6b,,,,
2h[4:1],,1,8,7h[4:1],,8,8qq4[2:1],1,1,1-3[8:1],,,,25,,
3h[4:1],,4,5,6h[4:1],,5,5pp1[2:1],4,4,4-2[8:1],,,,38,,
2h[4:1],,1,8,7h[4:1],,8,8qq4[2:1],1,1,{4}1-3[8:1],,25,
68,78,13,12,{16}7,8,7,,2,1,{8}2,1-4[8:1]/8-5[8:1],27,1b/8b,,
1/2h[4:1],,4,,7h[4:1]/8,,5,,1h[4:1]/8,,7-3[8:1],7,2-5[8:1],,,,
3h[4:1]/4,,1,,5/6h[4:1],,8,,36,,12,2,18,{16},36,{4}3b/6b,
5/7h[4:1],8,2h[4:1]/4,1,4/5h[4:1],{8}3-7[8:1],3,6-1[8:1],,,,
3^8[8:1]/5h[4:1],,,5,4h[4:1]/6^1[8:1],,,4,45,{16}7,8,6,,2,1,3,,18,,{4}3b/6b,
4-8[8:1]/5-1[8:1],4b/5b,{16}27,,,5,{8}5>8[4:1],3,2h[8:3],,,6,3b/7b,,2,1,
7h[4:1]/8-4[8:1],,8,,1-5[8:1]/2h[4:1],,1<4[4:1],,6h[8:3],,,2,3b/7b,,,,
28,,6/8-4[8:1],17,2-6[8:1]/8,,2/5<3[16:5],,8h[4:1],,,8,14,,5,6,
{4}7v4[8:1]/8,5qq8[2:1],,,5-1[8:3]*z1[8:3],,,3b/7b,
4-8[8:1]/5-1[8:1],4b/5b,{16}27,,,4,{8}4<1[4:1],6,7h[8:3],,,3,2b/6b,,7,8,
1-5[8:1]/2h[4:1],,1,,7h[4:1]/8-4[8:1],,8>5[4:1],,3h[8:3],,,7,2b/6b,,,,
17,,1-5[8:1]/3,28,1/7-3[8:1],,4>6[16:5]/7,,1h[4:1],,,1,58,,8,7,
{4}5-8[8:1]/6,3qq6[8:3]/5,,,2b/7<2[2:1],,,,
8<4[2:1],4,4>8[2:1],8,8<4[2:1],4,3,2,
1>8[1:1]/8<1[1:1],,,,,,{16}27,,,45,45,,36,,
{1}2b/7b,,,,E
最終更新:2026年10月07日 22:40