EASY
BASIC
ADVANCED
EXPERT
MASTER
(162)
{4}18,18,{8}18,27,36,4,
{8}5,3,6,2,,8,{4}4-1[8:1],
{4}5-8[8:1],4-1[8:1],5-8[8:1],4-2[8:1],
{4}5-7[8:1],4-1[8:1],{8},8,{4}8,
{8}1h[8:3],2,3,4,5h[2:1],6,7,8,
{2}1v4[4:1]*v6[4:1],{4},27,
{4}2-5[8:1],1-6[8:1],8-3[8:1],7-4[8:1],
{2}1h[4:3],8h[4:1],
{4}3b/6b,{16}18,,,3,{8}4,25,{4}25,
{4}18,{16}36,,,6,{8}5,47,{4}47,
{4}45,{16}27,,,2,{8}1,38,{4}38,
{4}78,12,{16}8,1,,6,5,,3,4,
{2}2-5[8:1]*-6[8:1],{8}34,45,{4}56,
{2}7-3[8:1]*-4[8:1],{8}56,45,{4}34,
{16}4,,,26,,,8,,{8}1pp3[8:1],7qq5[8:1],,,
{16}1,,,37,,,5,,{4}26,{16}1,8,1,8,
{8}2,2h[4:1],,3h[4:1],,{16}2,3,{4}4,
{8}7,7h[4:1],,6h[4:1],,{16}7,6,{4}5,
{8}3,3h[4:1],,4,,{16}78,16,{4}25,
{2}7h[4:1]/8h[4:1],3-8[8:1]/4-7[8:1],
{16}1,,,2,,,3h[2:1],,2,,,1,,,8,,
{16}8h[8:3],,,7,,,6,,{8}18,27,{4}36,
{16}8,,,7,,,6h[2:1],,7,,,8,,,1,,
{16}1h[8:3],,,2,,,3,,{4}1pp3[8:1]/8qq6[8:1],18,
{16}4,,,3,,,2h[2:1],,3,,,4,,,5,,
{16}5h[8:3],,,6,,,7,,{8}45,36,{4}27,
{16}5,,,6,,,7h[2:1],,6,,,5,,,4,,
{8}45,,,12,{4}38,5b/6b,
{8}25,{16}3,4,{8}3,25,{16}1,2,,1,{8}2,38,
{8}47,{16}6,5,{8}6,47,{16}7,8,,7,{8}8,16,
{8}34,{16}2,5,{8}2,34,{16}1,1,,8,{8}8,27,
{4}3^8[8:1],4^7[8:1],{2}8-3[8:1]*-5[8:1],
{8}5,{16}2,3,{8}2,8,{16}4,5,,1,{8}8,27,
{8}4,{16}7,6,{8}7,1,{16}8,1,,5,{8}4,36,
{4}12,78,{16}34,,,18,,,56,,
{4}45,2pp3[8:1]/7qq6[8:1],{2}2b/7b,
{4}1,1h[2:1],{8}2,3,4,5h[2:1],
{8}6,7,8,1,{4},5-8[8:1],
{4}4-1[8:1],5-7[8:1],4-2[8:1],5-1[8:1],
{4}4-8[8:1],5-8[8:1],{8},1,{4}1,
{8}1h[8:3],8,7,6,5h[2:1],4,3,2,
{2}1v4[4:1]*v6[4:1],{4},27,
{8}4,4,5,5,4,5,4,5,
{8}45,45,45,45,{4}2-5[8:1]/7-4[8:1],2b/7b,
{8}2h[2:1],,,1,{4}1,14,
{16}38,,,58,,,16,,{8}7^4[8:1]/8^3[8:1],78,{4}78,
{16}12,,,23,,,34,,12,,,18,,,78,,
{16}12,,,38,,,47,,38,,,56,,,12,,
{4}4/7^4[4:1],{8}3,2,{4}1,67,
{16}68,,,16,,,26,,{8}3h[4:1]/6h[4:1],,,1,
{4}1V35[4:1],5V71[4:1],1-5[4:1],5qq1[2:1]*pp1[2:1],
{2},{4},2b/8b,
{8}8h[2:1],,,1,{4}1,58,
{16}16,,,14,,,38,,{8}1^6[8:1]/2^5[8:1],12,{4}12,
{16}78,,,67,,,56,,78,,,18,,,12,,
{16}78,,,16,,,25,,{4}7-4[8:1]/8-3[8:1],7b/8b,
{4},{8}2,13,{4}48,{8}7,68,
{16}15,,,48,,,26,,{8}37,,,7,
{4}7<3[4:1],3>7[4:1],7V53[4:1],3V17[4:1],
{2}7v2[8:1]*v4[8:1],3v6[8:1]*v8[8:1],
{8}27,{16}3,4,,6,5,,1,8,2,7,1,8,2,7,
{8}3,{16}3,4,,6,5,,3,4,,6,{4}5,
{8}36,{16}2,1,,7,{8}8,16,25,34,78,
{16}12,,,56,,,34,,{4}78,{16}1,8,1,8,
{8}2h[4:1]/7h[4:1],,,36,{4}18,23,
{16}34,,,78,,,67,,{8}1-3[8:1]/8-4[8:1],18,{4}18,
{16}25,,34,34,,,25,,47,,56,56,,,47,,
{16}36,,18,18,,,36,,57,,,13,,,26,,
{8}4h[4:1]/8h[4:1],,,18,{4}27,67,
{16}56,,,12,,,23,,{8}1h[4:1]/8h[4:1],,,5,
{4}5V31[4:1],1V75[4:1],5-1[4:1],1qq5[2:1]*pp5[2:1],
{2},{4},1b,
{8}2h[4:1]/8h[4:1],,,5,{4}46,38,
{16}12,,,78,,,16,,{8}4-1[8:1]/5-8[8:1],45,{4}45,
{16}1,,2-5[8:1],2,,,8,,8,,7-4[8:1],7,,,1,,
{16}2,,3-8[8:1],3,,,7,,6b,,,1b,,,4b/5b,,
{4},{8}1,3,{4}78,{8}8,6,
{16}12,,,56,,,78,,{8}34,,,2,
{4}2>6[4:1],6<2[4:1],2V46[4:1],6V82[4:1],
{2}2qq6[2:1]*pp6[2:1],{4},{8},7,
{4}7<3[4:1],3>7[4:1],7V53[4:1],3V17[4:1],
{2}7qq3[2:1]*pp3[2:1],{4},{8},4,
{4}4p8[4:1],8p4[4:1],4>8[4:1],8<4[4:1],
{2}4-8[8:1],8-3[8:1]*-5[8:1],
{8}27,{16}6,5,,3,4,,8,1,7,2,8,1,7,2,
{8}6,{16}6,5,,3,4,,6,5,,3,{4}4,
{8}36,{16}7,8,,2,{8}1,38,47,56,12,
{16}78,,,34,,,56,,{4}1b/2b,{16}8,1,8,1,
{8}7,7h[4:1],,6h[4:1],,{16}7,6,{4}5,
{8}2,2h[4:1],,3h[4:1],,{16}2,3,{4}4,
{8}6,6h[4:1],,5,,{16}12,38,{4}47,
{8}56,5h[4:1]/6h[4:1],,,,34,,{16}1,8,
E
Re:MASTER
最終更新:2026年10月03日 22:30