アットウィキロゴ

白い雪のプリンセスは

アーティスト のぼる↑

BPM EASY BASIC ADVANCED EXPERT MASTER Re:MASTER
200 2 6 8+ 11+ 12+ -

EXPERT MASTER Re:MASTER
譜面制作者 LabiLabi 玉子豆腐 -

EASY


BASIC


ADVANCED


EXPERT


MASTER

(200)
{2},{4},{8},{1}3>6[8:11],,6<3[8:11],,{8}2h[8:3]/4,
,1,1,,38,38,,7h[8:3]/5,,8,8,,61,61,,2h[8:3]/4,
,1,1,,38,38,,75,,7,8,1b/6b,,2,1,3b-8[8:1]/8b,
,5,5-8[8:1],,2,2,,6-1[8:1]/1,,4,4-1[8:1],,7,7,,3-8[8:1]/8,
,5,5-8[8:1],,2,2,,61,,8,1,2b/7b,,4,5,3b/6b,
,3,24,,6,57,,4,4,3,6,7,2,1,7,8,
12,12,,,37,,78,78,,2-5[8:1]/6-1[8:1],26,,,,37,,

2-6[8:1],6-2[8:1],2,,7-3[8:1],3-7[8:1],7,,1-5[8:1],5-1[8:1],1^4[16:3],{2},{8}6h[4:1],
,5,7,,3,3,24,,57,,68,68,,18,,2/4h[8:3],
,,5^2[16:3],,6,6,,7/5h[8:3],,,4^7[16:3],,3,3,,2h[4:1],
,1,3,,7,8,16,,2>6[4:1]/4,,,7,,,18,,
7-4[8:1],8,7,,2-5[8:1],1,2,,7-4[8:1],8^3[16:3],7,{2}8,{8}3h[4:1],
,4,2,,6,6,57,,24,,1-6[8:1]/3-6[8:1],{2}13,{8}5h[8:3]/7,
,,4^7[16:3],,3,3,,4h[8:3]/2,,,5^2[16:3],,6,6,,7,
{4}7^5[4:1],5^3[4:1],3^1[4:1],1^6[4:1],6^3[4:1],3^8[4:1],8^5[4:1],5>1[4:1],
1<5[4:1],5>1[4:1],1<5[4:1],5,2h[4:1],1h[4:1],8h[4:1],7,

{8}6-1[8:1],,5,5,,4,4,,3-8[8:1],,4,4,,6,5>1[16:3],6,
5,,7,7h[8:3],,8,8,,6h[4:1],,5,5,,34,,2,
2-5[8:1],,1,1,,8,8,,7-4[8:1],,8,8,,2,1^6[16:3],2,
1,,3,3h[8:3],,5,{4}5,6h[4:1],7h[4:1],8h[4:1],1,
{8}2-6[8:1],,1,1,,8,8,,7-3[8:1],,8,8,,1,{4}1-4[8:1]*-6[8:1],
,37,{6}7h[6:1],6h[6:1],5h[6:1],{8}4,,36,36,,,{4}18,
7-4[8:1],8,2-5[8:1],1,6h[4:1],5,3h[4:1],4,
{1}5h[2:1],{4}3h[4:3]/8b,7b,6b,5b,

4b-8[4:1],8-2[8:1]*-6[8:1],,{8},1,{4}2/8-3[8:1],8/1-6[8:1],1/7-4[8:1],7/2-5[8:1],
2/8-5[8:1],8-3[8:1],8-4[8:1],8^3[16:3]*^5[16:3],8,,18,27,
2-5[8:1]/5,7,4/8-5[8:1],{8}4,3,2^7[8:1],,4,4,,2-5[8:1]/6-1[8:1],26,,
,,45,36,,4h[4:1]/5-8[4:1],,5,,,{4}3,2,18,
1-5[4:1]/2,5-3[8:1]*-7[8:1],,{8},8,{4}7/1-6[8:1],1/8-3[8:1],8/2-5[8:1],2/7-4[8:1],
7/1-4[8:1],1-6[8:1],1,{8}2^5[4:1],2,{4},6,18,27,
7-4[8:1]/4,2,5/1-4[8:1],5,{8}7^2[8:1],,5,5,,36,36,,
2h[8:3],,,1,{4}12,12,68,68,24,24,
{8}5b/7b,,,1b/3b,,,{4}1b/5b,1b/6h[4:3],2b,3b,4b,

5bpp5[4:1]*qq5[4:1],5-1[8:1],,{8},8,{4}1/7-4[8:1],7/2-5[8:1],2/8-3[8:1],8/1-6[8:1],
1/8-5[8:1],8-3[8:1],8-4[8:1],8>4[16:3]*<4[16:3],8,,18,27,
7^4[8:1]/4,2,5/8^3[8:1],{8}5,6,7^2[8:1],,5,5,,74,74,,
2/7-3[4:1],,3pp5[8:3],3,,5-8[4:1],,,{4},3,2,18,
7/8-4[4:1],4qq4[4:1]*pp4[4:1],,{8},7,{4}8/2-5[8:1],2/7-4[8:1],7/1-6[8:1],1/8-3[8:1],
8/1-4[8:1],1-6[8:1],1,{8}2^5[4:1],2,{4},6,18,27,
2^5[8:1]/5,7,1^6[8:1]/5,4,2^7[8:1],{8}4,4,,25,25,,
3b/8b,,,1b/6b,,,{4}1b/8b,1b/2h[4:3],7b,5b,{8}3b-7[4:1],3b,

,2,2,,18,18,,5/6h[8:3],,8,8,,12,12,,3h[8:3]/4,
,1,1,,78,7^4[16:3]/8,,2h[8:3],,,3,,45,4/5-8[4:1],,25,
,1,1-4[8:1],,7,7,,2-5[8:1]/5,,8,8-5[8:1],,3,3,,4/7-4[8:1],
,1,1-4[8:1],,6,6^8[16:3],,3h[8:3],,,4,,12,1<5[4:1]/2,,3,
,2,2,,3,3,,4-1[8:1]/7,,6,6-1[8:1],,3,3,,2/5-8[8:1],
,3,3-8[8:1],,6,6,,47,,1,8,1,2b/7b,2b/7b,,5h[4:1]/6,
,7V51[4:1],7,,2,2,,4h[4:1]/3,,2V48[4:1],2,,7,7,,5h[4:1]/6,
,7V51[4:1],7,,2,2,,4h[4:1]/3,,2V48[4:1],2,,7,7,,4h[4:1]/5,
,6V48[4:1],6,,1,{4}1,7-3[8:1]*-4[8:1],7,2-6[8:1]*-5[8:1],2,{8},
57,,,24,,,{1}1b/5b<2[2:5],,,,E

Re:MASTER


  • MASTER譜面を追加しました。修正等ありましたらよろしくお願いします。 -- けもがみ (2026-06-02 19:03:03)
名前:
コメント:

タグ:

+ タグ編集
  • タグ:
最終更新:2026年10月03日 22:28