アットウィキロゴ

好き!雪!本気マジック

アーティスト Mitchie M

BPM EASY BASIC ADVANCED EXPERT MASTER Re:MASTER
167 2 4 8 11 12 -

EXPERT MASTER Re:MASTER
譜面制作者 はっぴー はっぴー -

EASY


BASIC


ADVANCED


EXPERT


MASTER

(167)
{12}24,,,45,,5h[4:1]/7h[4:1],,,,45,,,75,,,54,,4h[4:1]/2h[4:1],,,,2^5[8:1]/7,,,
{4}8,7^4[8:1]/2,1,3^8[8:1]/6,5,6^1[8:1]/2,4,4V28[4:1]/5>8[4:1],
,{12},,6,5,,3,4,,25,,,26,{4}2^5[8:1]/6^1[8:1],,7^4[8:1]/2,
8,2^5[8:1]/7,1,6^1[8:1]/3,5,45,18,7^4[4:1]/2,
4^1[4:1],1^6[4:1],6^3[4:1],3^8[4:1],8,5,{12}45,,36,36,,,

2h[2:1],,4,4,,,7h[2:1],,5,5,,,2h[2:1],,3,3,,,7h[2:1],,6,6,,,
3h[2:1],,4,4,,,6h[4:1],,5,5,,46,,,73,{4}7^4[8:1]/3^8[8:1],,15,
{12}6h[2:1],,8,8,,,3h[2:1],,1,1,,,6h[2:1],,8,8,,,3h[4:1],,1,{4}1^4[8:1]*^6[8:1],
,8^5[8:1]*^3[8:1],,4-2[8:1],5-7[8:1],1-3[8:1],8-6[8:1],4-8[8:1],5-1[8:1],8w4[4:1],,,

{12}3h[4:1]/5,,,4,,4,2,,2,1,,28,,,34,,,16,{4}1h[4:1]/6h[4:1],,
24,45,57,45,2h[6:1]/8h[6:1],7h[6:1]/1h[6:1],2b/8b,45,
{12}6h[4:1]/4,,,5,,5,7,,7,8,,71,,,65,,,83,{4}8h[4:1]/3h[4:1],,
{1}7/5qq2[2:1]*pp8[2:1],{4}2h[6:1]/4h[6:1],4h[6:1]/5h[6:1],57,34,

3/6^3[8:1],1,{12}12,,1<3[3:1]/2p3[3:1],,{2},{12},1,17,,8,82,,,
{4}6/3^6[8:1],8,{12}87,,8>6[3:1]/7q6[3:1],,{2},{12},8,82,,1,17,,,
{2}2h[4:1]/6^3[8:1],7h[4:1]/3^6[8:1],{12}1,,1,{4}8,37,2>1[8:3]/6,,,8b,7<8[8:3]/3,,,1,18,

2h[4:1],4h[4:1],6h[4:1],8h[4:1],{12}2,,2,4,,4,6,,6,8,,8,
{4}2-6[8:1],4-8[8:1],6-2[8:1],8-4[8:1],1,2b/7b,,2/7^4[8:1],

1,6/2^5[8:1],7,3/6^1[8:1],2,7/3^8[8:1],6,4<1[4:1]/5V71[4:1],
,{12},,3,4,,6,5,,47,,,73,{4}3^8[8:1]/7^4[8:1],,2^5[8:1]/7,
8,3/7^4[8:1],2,3^8[8:1]/7,6,4^1[8:1]/5^8[8:1],,2^5[4:1]/7,
5^8[4:1],8^3[4:1],3^6[4:1],6^1[4:1],1,4,45,5>1[8:1]/6,

,{2}4<8[8:1],5>1[8:1],4<8[8:1],{4}4V28[4:1]/6V48[4:1],
,{12},,6,5,,3,4,,4^1[8:1]/5^8[8:1],{4},,36,2^7[4:1]/5,
7-3[4:1],3^6[4:1],6-2[4:1],2^7[4:1],7pp4[2:1],4,,,{6}57,18,24,45,57,18,{1}2b/7b,

{4}36,4^1[8:1]/7^4[8:1],,38,63,5^8[8:1]/2^5[8:1],,61,
4^1[8:1]/5^8[8:1],,45,5V73[4:1],{2}3-1[8:1],2p5[8:1]/6-3[8:1],
{4}78,3>7[4:1]/4v7[4:1],,,21,6<2[4:1]/5v2[4:1],,,
{12}34,,6,57,,3,24,,6,57,,45,,,18,,,27,{4}2h[4:1]/7h[4:1],,

3^8[8:1]/4,4,5^8[8:1]/4,4,3^8[8:1]/4,4,5^8[8:1]/4,4,
{12}35,,4,46,,5,35,,4,4/6pp2[2:1],,,{2},{12},,37,37,,,
{4}6^1[8:1]/5,5,4^1[8:1]/5,5,6^1[8:1]/5,5,45,4V28[4:1]*V68[4:1]/5,
,{12},,16,,,5,4,,38,,,4,5,,27,{8},1,1,,

{4}7h[4:1],5h[4:1],3h[4:1],1h[4:1],{12}7,,7,5,,5,3,,3,1,,1,
{4}7-3[8:1],5-1[8:1],3-7[8:1],1-5[8:1],8,7b/2b,,,

{12}3h[4:1]/5,,4,4,,,6h[4:1]/4,,5,5,,,3h[4:1]/5,,4,4,,,6h[4:1]/4,,5,5,,,
36,,,45,,5,35,,4,{4}4/6<3[4:1],,,27,45,
{12}7h[4:1]/4,,5,5,,,2h[4:1]/5,,4,4,,,7h[4:1]/4,,5,5,,,{4}45,7^4[4:1]/2,
4^1[4:1],1^6[4:1],6^3[4:1],3^8[4:1],8,5,45,{1}1b/8bw4[2:1],{4}2/6^1[8:1],

4,7/3^8[8:1],5,4V28[4:1]/5>8[4:1],,{12},,6,5,,3,4,,27,,,5,4,,,36,4,5,{4}3b^6[4:1]/6b,
6-2[4:1],2^7[4:1],7-3[4:1],3^6[4:1],6qq1[2:1],1,,,
{6}42,81,75,54,42,81,{4}7b/2b,4h[6:1]/5h[6:1],3h[6:1]/6h[6:1],2h[6:1]/7h[6:1],
{6}18,57,45,24,18,57,24,18,57,24,18,57,{2}1b/6b,1,{12}3,,,,,5,,,,27,,,{1},,,,E

Re:MASTER


  • MASTER譜面を追加しました。修正等ありましたらよろしくお願いします。 -- けもがみ (2026-06-08 07:34:29)
名前:
コメント:

タグ:

+ タグ編集
  • タグ:
最終更新:2026年10月03日 22:21