EASY
BASIC
ADVANCED
EXPERT
MASTER
(128){1},,{4},,,3b/6b,
{8}7,3h[4:1]/8-4[8:1],,8,2,1-5[8:1]/6h[4:1],,1,7^2[4:1],,2^5[4:1],,5^8[4:1],,8,,
2,1-5[8:1]/6h[4:1],,1,7,3h[4:1]/8-4[8:1],,8,2^7[4:1],,7^4[4:1],,4^1[4:1],,1,,
6,2h[4:1]/4-1[8:1],,4,3,5-8[8:1]/7h[4:1],,5,6^3[4:1],,3^8[4:1],,8^5[4:1],,5,,
3,5-8[8:1]/7h[4:1],,5,6,2h[4:1]/4-1[8:1],,4,3^6[4:1],,6^1[4:1],,1,,3,27,
1h[4:1]/8,3,8h[4:1],6,1h[4:1],3,8,36,,45,36,27,18,,2^5[8:1]/6^1[8:1],15,
26,,4h[4:1],2,5h[4:1],7,4,3h[4:1]/6,,2,1,8,67,,36,27,
1/8h[4:1],6,1h[4:1],3,8h[4:1],6,1,36,,45,36,27,18,,3^8[8:1]/7^4[8:1],48,
37,,2^5[8:1]/6^1[8:1],15,26,,3^8[8:1]/7^4[8:1],48,37,,36,,4-1[8:1]/5-8[8:1],,4b/5b,,
{16},7,8,,16,,7,8,,,12,,38,,2,1,3,,47,,56,,25,,34,,47,,5/6h[16:5],,,,
,8,7,,16,,8,7,,,12,,38,,2,1,3,,47,,56,,25,,34,,47,,5/6h[16:5],,,,
,1,8,1,8,,35,,7-4[16:1]/8-4[16:1],,,78,,,,,8,1,8,1,8,,46,,1-5[16:1]/2-5[16:1],,,12,,,6,,
17,,3,3,,,45,,28,,6,6,{8},45,2v4[8:1],4,6<2[4:1],,4h[4:1],,,,
{16},2,1,,38,,6,5,,,78,,16,,5,4,{8}6,25,34,47,56,25,3h[16:5]/4,,
{16},1,2,,38,,6,5,,,78,,16,,5,4,{8}6,25,34,47,56,25,3h[16:5]/4,,
{16},8,1,8,27,,46,,1-5[16:1]/2-5[16:1],,,12,,,,,1,8,1,8,27,,35,,7-4[16:1]/8-4[16:1],,,78,,,3,,
28,,6,5,,,45,,17,,3,4,{8},45,7v5[8:1],5,3>7[4:1],,5h[4:1],,,,
1^4[8:1]/7,1/7h[8:1],,,2^5[8:1]/8,2/8h[8:1],,,1h[4:3]/3^6[8:1],,3,,6^3[8:1],,6,,
2/8^5[8:1],2h[8:1]/8,,,1/7^4[8:1],1h[8:1]/7,,,6^3[8:1]/8h[4:3],,6,,3^6[8:1],,3,,
1^4[8:1]/7,1/7h[8:1],,,2^5[8:1]/8,2/8h[8:1],,,1h[4:3]/3^6[8:1],,3,,6^3[8:1],,6,,
34,24,56,57,34,14,56,58,{48}2,,1,,2,,6,,,5,,,7,,8,,7,,3,,,4,,,{8}1-5[8:1]/8-4[8:1],27,1b/8b,,
4qq2[8:1]/5pp7[8:1],,45,,36,45,36,1-5[8:1]/2-6[8:1],,12,,5q4[8:1]/6<3[8:1],56,,,3>6[8:1]/4p5[8:1],
34,,,{16}56,5/6h[16:3],{8},1,34,2z6[4:1]/8,,5,5,,,16,28,{16}34,34,
,,38,,17,,56,56,,,1h[4:3]/7,,,,8,,2,,6,,4,,5,,,,38,,17,,56,56,
,,16,,28,,34,34,{8},8h[4:3],1,7,2,6,3,4,,18,27,36,
4qq2[8:1]/5pp7[8:1],36,45,,36,45,3qq5[4:1]/6pp4[4:1],36,,,,3>6[8:1]/4p5[8:1],34,,,5q4[8:1]/6<3[8:1],
56,,,{16}34,3h[16:3]/4,{8},8,56,1/7s3[4:1],,4,4,,,38,17,{16}56,47,
,,16,,28,,34,25,{8},1/8h[4:3],,1,7,3,5,4,,16,28,{16}34,25,
,,38,,17,,56,47,{8},1h[4:3]/8,,8,2,6,4,5^2[8:1]*^8[8:1],,5,,37,
{4}1-4[8:1],1-6[8:1],5-2[8:1],5-8[8:1],1^4[8:1]*^6[8:1],1w5[8:1],1,{8}78,26,
{4}4/5-8[8:1],5-2[8:1],1-6[8:1],1-4[8:1],5^2[8:1]*^8[8:1],5w1[8:1],5,{8}56,37,
1h[4:1]/8,3,8h[4:1],6,1h[4:1],3,8,36,,46,24,35,57,,2^5[8:1]/6^1[8:1],15,
26,,3^8[8:1]/7^4[8:1],48,37,,15,2h[4:1]/6,,3,4,5,67,,3^8[8:1]/7^4[8:1],48,
37,,2pp5[4:1]/6pp1[4:1],15,26,,,37,,35,57,46,24,,2^5[8:1]/6^1[8:1],15,
26,,3pp2[4:1]/7pp6[4:1],{16},37,{8}37,,,3/7h[4:1],,6,5,4,23,,56,37,
18,2-6[8:1],2h[8:1],,,8-4[8:1],8h[8:1],,,56,15,34,48,56,34,26,
18,45,3-8[8:1]/7-4[8:1],,37,,25,78,{16}1,2,5,6,4,3,8,7,{8}26,,4p8[8:1]/5q1[8:1],36,
{1}4b/5b,,E
Re:MASTER
最終更新:2026年10月03日 23:02