EASY
BASIC
ADVANCED
EXPERT
MASTER
(170)
{8}2,3,4,5,4,3,24,,7,6,5,4,5,6,75,,
2-5[8:1],8,8,,7-4[8:1],1,1,,2-5[8:1],8,8,,7-4[8:1],1,1,,
2-5[8:1],1,8,,7-4[8:1],8,1,,2-5[8:1],1,8,,47,{16}6,5,7,,3,4,
{8}2b,,28,,5-1[8:1],4,3,,4-8[8:1],5,6,,5-1[8:1],4,3,,
3-8[8:1],4,5,,6-1[8:1],5,4,,24,2h[8:1]/4h[8:1],,75,7h[8:1]/5h[8:1],,12,38,
,2,3,4,{16}3/5h[2:1],,,6,,,2,,2h[2:1],,,3,,,8-5[8:1],,{2}7-4[8:1],
{8},7,6,5,{16}24,,,57,,,28,,{4}2/8-5[8:1],8-3[8:1],8-4[8:1],8,
{8},7,6,5,{16}6/4h[2:1],,,3,,,7,,7h[2:1],,,6,,,1-4[8:1],,{2}2-5[8:1],
{8},2,3,4,{16}75,,,42,,,56,,
{4}5h[8:1]/6h[8:1],3h[8:1]/4h[8:1],6h[8:1]/8h[8:1],1h[8:1]/3h[8:1],
{1}4>5[2:1]/5p4[2:1],{8}5,6,47,6,4,3,25,,5,6,47,6,4,3,25,,
68,6h[8:1]/8h[8:1],,31,3h[8:1]/1h[8:1],,56,47,
,57,4,3,{16}2h[2:1],,,1,,,5,,5h[2:1],,,6,,,8-4[8:1],,{2}1-6[8:1],
{8},4,5,6,{16}17,,,23,,,56,,{4}5-2[8:1]/6,5-8[8:1],5-1[8:1],5,
{8},42,5,6,{16}7h[2:1],,,8,,,4,,4h[2:1],,,3,,,1-5[8:1],,{2}8-3[8:1],
{8},5,4,3,{16}82,,,76,,,43,,
{4}4h[8:1]/3h[8:1],6h[8:1]/5h[8:1],2h[8:1]/4h[8:1],5h[8:1]/7h[8:1],
{8}35,4,4,46,5,5,24,3,3,57,6,6,45,,18,,
71,8,8,82,1,1,68,7,7,18,27,,25,{16}3,4,3-8[8:1],4,3,4,
{4}3b,5<3[4:1],4h[4:1],,1,4>6[4:1],5h[4:1],,
{16}57,,6,5,6,,24,,3,4,3,,5h[8:1],,6b,,{1},
{8}1b/7b,,1q5[8:1]/3,28,7,,1p5[8:1]/7,82,3,,1-4[8:1]/3,28,1-6[8:1]/7,,1,,
8/2,,8p4[8:1]/6,71,2,,8q4[8:1]/2,17,6,,86,71,82,71,8-5[8:1],2-5[8:1],
8b-4[8:1],2b-6[8:1],8b-3[8:1],2b,8b,,1>8[8:3],,{2}1b/7h[8:3],{4}17,67,
{8}48,48,37,26,{4}1^4[8:1]/5^8[8:1],1qq2[8:3]/5qq6[8:3],,,28,23,
34,4V68[4:1]/6,34,1,65,5V31[4:1]/3,6h[8:1]/5,6,
34,4V68[4:1]/6,34,1,65,5V31[4:1]/3,6h[8:1]/5,6,
18,{16}6,5,{4}47,{16}3,4,{4}52,{8}15,26,{4}3^8[8:1]/7^4[8:1],37,,
{8}1/2h[8:3],,,3,4,45,,25,,47,{4}4-8[8:1]/7-4[8:1],,,
{8}8/7h[8:3],,,6,5,54,,74,,52,{4}5-1[8:1]/2-5[8:1],,,
{8}4/3h[8:3],,,2,1,18,,38,,16,{4}1-5[8:1]/6-1[8:1],,,
{8}5/6h[8:3],,,7,8,81,,61,,83,{4}8-4[8:1]/3-8[8:1],,,
{1}3/4h[4:7],5h[4:7],7h[4:7],2h[4:3],
{4}1/8h[4:3],2,3,4,5/4h[4:3],6,7,8,{8}1,2,3,4,5,6,7,8,
{16}2,1,2,1,2,,7,8,7,8,7,,{8}1-4[8:1],7-4[8:1],
1b-5[8:1],7b-3[8:1],1b-6[8:1],7b,1,,8<1[8:3],,{2}8b/2h[8:3],{4}82,32,
{8}62,62,73,84,{4}1^6[8:1]/5^2[8:1],1pp8[8:3]/5pp4[8:3],,,71,76,
65,5qq1[8:3]/3,65,8,34,4pp8[8:3]/6,3-1[8:1]/4,3,
65,5qq1[8:3]/3,65,8,34,4pp8[8:3]/6,3-1[8:1]/4,3,
45,{16}3,4,{4}52,{16}6,5,{4}47,{8}45,27,{4}1s5[8:1]/8z4[8:1],18,,
{8}7-4[8:1],7,8,8,6,5,46,46,2-5[8:1],2,1,1,3,4,53,53,
7-4[8:1],7,8,8,6,5,46,46,2-5[8:1],2,1,1,57,{16}3,4,1,,6,5,
{2}8b-3[8:1]*-5[8:1],{8}2,1,28,28,4-8[8:1],4,5,5,7,8,71,71,
5-1[8:1],5,4,4,2,1,28,28,
57,5h[8:1]/7h[8:1],,42,4h[8:1]/2h[8:1],,1z5[8:1]/2s6[8:1],12,{1},,,,E
Re:MASTER
- MASTER譜面を追加しました。修正等ありましたらよろしくお願いします。 -- けもがみ (2026-06-08 20:21:38)
最終更新:2026年10月03日 22:28