アットウィキロゴ

Heart Beats

アーティスト 向日葵×emon(Tes.)

BPM EASY BASIC ADVANCED EXPERT MASTER Re:MASTER
128 2 4 8 9+ 12 -

EXPERT MASTER Re:MASTER
譜面制作者 rioN Jack -

EASY


BASIC


ADVANCED


EXPERT


MASTER

(128){1}4q5[4:5]/5<4[4:5],,{4},,
7h[4:1],3h[4:1],4h[4:1],5h[4:1],6h[4:1],7^2[8:1],,27,
2h[4:1],6h[4:1],5h[4:1],4h[4:1],3h[4:1],2^7[8:1],,27,
6h[4:1],2h[4:1],1h[4:1],8h[4:1],7h[4:1],6<3[8:1],,18,
3h[4:1],7h[4:1],8h[4:1],1h[4:1],2h[4:1],3>6[8:1],,1b/8b,

{8}3,5,4,6,1-5[8:1],,8,,6,5,47,,3,4,25,,
6,4,5,3,8-4[8:1],,1,,3,4,25,,6,5,47,,
3,8,1,6,2-6[8:1],,1,,7,8,16,,2,1,38,,
6,1,8,3,7-3[8:1],,8,,1,27,36,4-1[8:1]/5-8[8:1],,,,7p3[8:1],

7,,,2q6[8:1],2,,7,45,,78,16,25,34,18,,2q6[8:1],
2,,,7p3[8:1],7,,2,45,,12,38,47,56,18,27,6q3[8:1],
6,,,2^7[8:1],2,,6,18,,2,3,4,5,6,7,1-5[16:3]/8,
,8,7,6,5,4,3,1^6[8:1]/2^5[8:1],,,,7^4[8:1]/8^3[8:1],,,,1^4[8:1]/8q5[8:1],
18,,,1p4[8:1]/8^5[8:1],18,,,25,47,36,45,27,1^4[8:1]/8^5[8:1],,1b/8b,,

34,2,56,7,34,1,56,8^5[8:1],,4^1[8:1],4,,,48,37,26,
15,3,48,6,1-5[8:1],8-4[8:1],,,,45,2,45,7-3[8:1],1b,1b,,
24,3,57,6,13,2,68,7h[4:1],,1,45,28,,15,26,37,
48,6,15,3,48,5,36,18,,45,34,56,3p6[8:1]/7^2[8:1],,,,
56,7,34,2,56,8,34,1^4[8:1],,5^8[8:1],5,,,15,26,37,
48,2,15,7,8-3[8:1],1-6[8:1],,,,45,7,45,2-6[8:1],8b,8b,,
57,6,24,3,45,36,27,1/8h[4:1],,4,37,26,15,,4^1[8:1]/8^5[8:1],,
,,18,2,13,7,68,45,,18,56,34,2^7[8:1]/6q3[8:1],,,,

45,{16}3,4,3,,6,5,6,,3,4,2,,6,5,7,,3,4,1,,6,5,8,,47,,25,,36,,
45,,6,5,6,,3,4,3,,7,8,7,,2,1,{8}2,38,27,16,7-4[8:1]/8-3[8:1],,7b/8b,,
45,{16}6,5,6,,3,4,3,,6,5,7,,3,4,2,,6,5,8,,3,4,1,,25,,47,,36,,
27,,3,4,3,,6,5,6,,2,1,2,,7,8,7,,12,,38,,47,,56,,78,,16,,25,,
34,,6,5,6,,3,4,3,,6,5,7,,3,4,2,,6,5,8,,3,4,1,,25,,47,,36,,
18,,2,1,2,,6,5,6,,3,4,3,,7,8,{8}7,16,27,38,1-6[8:1]/2-5[8:1],,1b/2b,,
34,{16}6,5,6,,2,1,2,,7,8,{8}7,1h[4:1],,5,26,37,48,,1^4[8:1]/5^8[8:1],,
,,18,{16}6,5,6,,2,1,{8}2,7h[4:1],,8,16,25,3-8[8:1]/4-7[8:1],,3b/4b,,
45,{16}6,5,6,,3,4,3,,7,8,{8}7,2h[4:1],,1,38,47,5-2[8:1]/6-1[8:1],,5b/6b,,
45,{16}3,4,2,,6,5,7,,4,5,{8}4,8h[4:1],,1,27,36,4^1[8:1]/5^8[8:1],,4b/5b,,

12,3h[8:1],4,6h[8:1],5,78,,4h[8:1],2,5h[8:1],7^2[8:1],7,,,18,,
36,2h[8:1],1,7h[8:1],8,45,,3h[8:1],4h[8:1],5h[8:1],6h[8:1],1h[8:1],8,45,2b/7b,,
78,6h[8:1],5,3h[8:1],4,12,,5h[8:1],7,4h[8:1],2^7[8:1],2,,,18,,
36,7h[8:1],8,2h[8:1],1,45,,6h[8:1],5h[8:1],4h[8:1],3h[8:1],8h[8:1],1b,,{16}4,5,4,5p4[16:21],
{1}4>5[4:5],,,,E

Re:MASTER


名前:
コメント:

タグ:

+ タグ編集
  • タグ:
最終更新:2026年10月04日 22:08