アットウィキロゴ

どういうことなの!?

アーティスト くちばしP

BPM EASY BASIC ADVANCED EXPERT MASTER Re:MASTER
175 2 5 8+ 11 13 -

EXPERT MASTER Re:MASTER
譜面制作者 rioN ロシェ@ペンギン -

EASY


BASIC


ADVANCED


EXPERT


MASTER

(175){8}3,4,5,6h[2:1],,7,7,7,6,5,4,3h[2:1],,2,2,2,3,4,5,6h[2:1],,7,7,7,6,5,4,3h[2:1],,2,1,8,7,8,1,2h[2:1],,3,3,3,2,1,8,7h[2:1],,6,6,6,7,8,1,2h[2:1],,3,3,3,2,1,2/8,,7,8,1/7,2,3h[4:1],,4,5,6h[4:1],,7,8,1h[4:1],,8,2,7p4[4:1],3,,,,,1>4[8:1],6,8,,8<5[8:1],3,1,,1>4[8:1],6,8,7,6,5,6h[4:1],,5,4,3h[4:1],,2,1,8h[4:1],,1,8,2q5[4:1],6,,,,,8<5[8:1],3,1,,1>4[8:1],6,8,,1/8,2,1/3,4,3/5,6,7h[4:1],,1h[4:1],,2,3,4,5h[1:1],,,6,6<4[4:1],,,,,,,4h[4:3],,3,2,1,8p5[8:3],,,,,
{4}2,1,8h[4:1],2z6[4:1],,
{8}8,8h[8:5],,,4,4h[8:1],,2/7,,,1/7,8,1/7,,2/8,1,2/8,2>8[8:3]/8<2[8:3],,,,,,,
{4}3/7,2h[4:1],8h[4:1],
{8}7,6,5,4h[1:1],,,3,3>5[4:1],,,,,,,5h[8:3],,,2,7,1-4[8:1]/8-5[8:1],,,,,
{4}5/6,7/8,1p3[8:1]/2h[4:1],,
{8}1,8,1,1h[8:5],,,5,5h[8:1],,2/6,,,1/8,2,3/6,,1/8,7,3/6,3v1[8:1]/6v8[8:1],,,,2-4[8:1]/7-5[8:1],,,,,4/6,3,2/7,1,8-3[8:1],,1-6[8:1],,5h[8:7],,7,7>4[4:1],,,,,,,2h[4:1]/4h[4:1],,,5h[4:1]/7h[4:1],,,1b/8b,,,4/5,,4/5,,6,5/7,,3,2/4,,4/5,,8h[4:3],,,1,1h[4:1],,,2/7,,2/6,3,4/8,5,2/6,7,4/8,1,2<7[8:1]/6q3[8:1],,,,
{16}1,8,1,8,1b,,,,
{8}2-4[8:1]/5-1[8:1],,,,5/8,6,1/4,3,4-8[8:1]/7-5[8:1],,,,1/4,3,5/8,6,1/4p3[4:1],,3>4[8:3],,,,,,,7h[4:1],,3,1-4[8:1]/5-8[8:1],,,,4-8[8:1]/7-5[8:1],,,,1/4,3,5/8,6,2-4[8:1]/5-1[8:1],,,,5/8,6,1/4,3,5/8,6,5,4,3,2,1,8,7,
{16}3,4,3,,6,5,6,,1,8,1,8,1,,
{8}4>8[8:1]/7q5[8:1],,,,1/4,3,5/8,6,2p4[8:1]/5<1[8:1],,,,5/8,6,1/4,3,8/5q6[4:1],,6<5[8:3],,,,,,,3h[4:1],,7,4v2[8:1]/8v6[8:1],,,,2p4[8:1]/5<1[8:1],,,,5/8,6,1/4,3,4>8[8:1]/7q5[8:1],,,,1/4,3,5/8,6,1/4,3,4,5,6,7,8,1,2,
{16}6,5,6,,3,4,3,,8,1,8,1,8,,
{8}4h[4:1],,5h[2:1],,6,6,6,,5h[4:1],,4h[2:1],,3,3,3,,2q5[4:1],,6,7,8,,1,,,3h[8:5],,4,5,,
{4}6,5h[4:1],6h[2:1],
{8}7,7,7,,4h[4:1],,3h[2:1],,2,2,2,,2p3[4:1],,3>7[4:1],,7<3[4:1],,,,,7h[8:3],,1,1-5[8:1],,5-1[8:1],,6h[2:1],,5,7,5h[2:1],,4,6,4h[2:1],,3,5,3h[2:1],2,1,8,7-3[8:1],,1,5,1-5[8:1],,7,3,7,8-4[8:1],,4>5[4:1],,,,,3h[2:1],,4,2,4h[2:1],,5,3,5h[2:1],,6,4,6h[2:1],7,8,1,2-6[8:1],,8,4,8-4[8:1],,2,6,2,,1/2,3/8,4/7,5/6,7/8,1/6,5/2h[2:1],,1,3,1h[2:1],,8,2,8h[2:1],,7,1,7h[2:1],6,5,4,3q4[4:1],,8,7,6p5[4:1],,3,2,1q2[4:1],,7,6,5,4,5,6,7h[2:1],,8,6,8h[2:1],,1,7,1h[2:1],,2,8,2h[2:1],3,4,5,6p5[4:1],,1,2,3q4[4:1],,6,7,8p7[4:1],,5,4,3,2,1,8,8b/1h[4:1],,8,1,
(172)
{8}2b/1h[4:1],,2,1,
(160)
{4}7b/8h[4:1],
(157)
{96}7,
(201)
{96},,,{12},
{8}8,
(166)
{8}1/8,2/7,3/6,4>5[0.3659##1.6785]/5<4[0.3659##1.6785],
(162)
{1}4b/5b,
(157)
{2},
{16}8,1,
E

Re:MASTER


  • MASTER譜面を追加しました。修正等ありましたらよろしくお願いします。 -- なぎさ (2026-08-15 13:44:37)
名前:
コメント:

タグ:

+ タグ編集
  • タグ:
最終更新:2026年10月03日 22:32