EASY
BASIC
ADVANCED
EXPERT
MASTER
(185){4},,,4,
4h[4:13]/6,8,,8,,8,,8,
,8,,8,,8w4[4:1],,,
5-2[8:1]/6h[4:1],,3h[4:1]/4-7[8:1],,5-2[8:1]/6h[4:1],,{8}3,3,24,,
5-2[8:1]/6h[4:1],,,,3h[4:1]/4-7[8:1],,,,8,,17,1-4[8:1]/7-4[8:1],,,,2b/8b,
,,34,,5^2[8:1]/6h[4:1],,,,3h[4:1]/4^7[8:1],,,,2,2q4[8:5],1,8h[8:5],
,,,,,8>6[2:1],,4,,,,,1b/7b,,,,
3^8[8:1]/4,,7,6,5^8[8:1],,1,1w5[8:1],,,,37,37,,25,2h[4:1]/5,
,4h[4:1],,5,5,,46,4-1[8:1]/6,,7-4[8:1],,2,2,3>6[8:3],4,5h[8:3],
,,,5,4/6-1[8:1],,2,2-5[8:1],,8,,1,1,2/8^5[8:1],,3^8[8:1],
,7,,6,45,3,24,2-5[8:1]/4-7[8:1],,,,18,,7<1[8:5],1,1,
{4},,,2>8[2:1]/8,,,,12,
{8}6,6,4h[4:1],,5,5,3h[4:1],,4,34,,2-5[8:1]/5,,6-1[8:1],,3,
,28,28,,3,3,5h[4:1],,4,4,6h[4:1],,5,5>1[8:3]/6,,7,
,,,,34,3/4<8[8:3],,2,,,1,1-5[8:1],,8,,6h[4:1],
,5,56,,3,3,24,,6,6,5-2[8:1]*-8[8:1]/7,,,,1,,
5/6h[4:1],,5,4/7-4[8:1],,3-8[8:1],,6,,17,,38,3/8-4[8:1],,2,,
3,3,2h[4:1]/4,,5,5,4/6h[4:1],,5,,78,7-3[8:1]/8,,1>6[8:3],,,
,,,,27,2h[4:1]/7,,4h[4:1],,6h[4:1],,8,,17,,,
2,2,13,,6,6,57,,3,3,2/4-1[8:1]*-7[8:1],,,,8,,
3/4h[4:1],,3,2-5[8:1]/5,,6-1[8:1],,3,,28,,16,1-5[8:1]/6,,7,,
6,6,5/7h[4:1],,4,4,3h[4:1]/5,,4,,12,1/2-6[8:1],,8<3[8:3],,,
,,,,27,2/7h[4:1],,5h[4:1],,3h[4:1],,1,,28,,,
{2}3pp5[2:1]/4h[4:1],7,5h[4:1]/6q4[2:1],2,
{8}2h[4:1]/6h[4:1],,,1^6[4:1]/7,,6^3[4:1],,3^8[4:1],,8w4[4:1],,,,,,3h[4:1]/5h[4:1],
,,4/6-1[8:1],,5,,,2h[4:1]/8h[4:1],,,1/7^4[8:1],,8,8,1,2h[4:1]/6h[4:1],
,,3^8[8:1]/7,,4,4,,1h[4:1]/8h[4:1],,,27,,45,4>5[8:5]/5<4[8:5],,,
,,,,,,45,45,{6},6b,3b,7b,2b,1b/8b,
{8}4>8[16:3]/8,,6,5,4-8[8:1],,1,1w5[8:1],,,,37,3/7h[4:1],,5,5-1[8:1],
,7-3[8:1],,2,2,1,8,3-8[8:1]/7-4[8:1],,,,16,7,3/8<3[8:3],2,2h[8:3],
,,,2,1/2^5[8:1],,8,8w4[8:1],,,,26,2/6h[4:1],,5,5-2[8:1]/6,
,8-5[8:1],,1,1,3,5,2-5[8:1]/7-3[8:1],,,,1b/8b,,45,6,5/7V51[4:1],
,,3,4,5>1[16:3],,8,8w4[8:1],,,,26,2h[4:1]/6,,4,4-7[8:1],
,1-4[8:1],,8,8,6,4,3-8[8:1]/7-4[8:1],,,,16,2,3pp8[8:3]/8,7,7h[8:3],
,,,7,7^4[8:1]/8,,1,1w5[8:1],,,,37,3h[4:1]/7,,4,3/4^7[8:1],
,1,1,8,7,7-4[8:1],1,1-5[8:1],,6-1[8:1],,4,,38,{4}3b/8b,
4h[4:7],5,,5,,3,,3,
3/5h[4:5],4,,4,,6,{16}47,,6,5,{8}6,2h[8:3]/5h[8:3],
,,,36,4h[4:1]/7h[4:1],,,{16}6,5,6-1[8:1],,,,3,,3,,,,2,1,{8}2,38,
3-6[8:1]/8,,7,7-4[8:1],,1^4[8:1],,6^1[8:1],,3,3V51[4:1],,8,8,,,
57,57,6,3,24,2^5[8:1]/4,,8-4[8:1],,1,1,,6,5,47,,
{16}4,5h[16:3],,,2h[16:3],,,4h[16:3],,,3h[16:3],,,7h[16:3],,,5h[16:3],,,6,,,78,,7h[16:3]/8,,,2,,,12,,
2,3,4,5,8,7,6,5,1,2,3,4,7,6,5,4,2,3,4,5,8,7,6,5,8,1,2,3,48,,,,
6h[16:3],,,5,,,47,,3h[16:3],,,4,{8},2^5[8:1]/5,,7,7V15[4:1],,3,3,,,
6,{16}6,5,,5,7,,2,1,3,,7,8,6,,2,5,2,5,4,7,4,7,5,6,5,,47,,3,,
25,,3,4,,,18,,47,,6,5,{8},26,,48,4h[4:1]/8,,{32}8b-4[8:1],7,6,5,4,3,2,1,{8},,
2/5<1[16:3],,3,4,5p1[8:1],,8,8w4[8:1],,,,26,2h[4:1]/6,,1,1/2^5[8:1],
,7^2[8:1],,4,4,5,6,3/7-2[8:1]*-4[8:1],,,,38,7,3/6<4[8:3],2,2h[8:3],
,,,2,2^5[8:1]/5,,8,8w4[8:1],,,,26,2h[4:1]/6,,1,1^6[8:1]/2,
,4^1[8:1],,5,5,6,4,2-6[8:1]/7-4[8:1],,,,3b/8b,,45,6,7V51[4:1]/8,
,,3,4,5>1[16:3],,8,8w4[8:1],,,,26,2h[4:1]/6,,1,1/2q6[8:1],
,5q1[8:1],,3,3,8,7,2/6-1[8:1]*-3[8:1],,,,25,3,4pp8[8:3]/8,7,7h[8:3],
,,,7,7p2[8:1]/8,,1,1w5[8:1],,,,37,3/7^4[8:1],2,1,1-5[8:1],
,6,6,,35,{1}3qq8[8:9]/5pp8[8:9],,
{8}6pp6[16:13],{2},2h[32:19],{32},,,5pp4[32:37],{8},
,,,{32},,,{1}3h[32:25],,,,,E
Re:MASTER
最終更新:2026年10月09日 22:11