EASY
BASIC
ADVANCED
EXPERT
MASTER
(162){1},
2-6[4:3],1-5[4:3],
8-4[4:3],7-3[4:3],
6<2[4:3],3>7[4:3],
2q5[4:3],{4}8b,,,1,
{2}2-6[4:3],8,8-4[4:3],1,
1-5[4:3],7,7-3[4:3],2,
{4}2-5[4:3],1-6[4:3],,,,,,,
7p4[4:3],8^3[4:3],,,,,1b/8,,
1,1s5[8:3],8,,8,8z4[8:3],1,,
15,26,37,4v1[4:1]/8v5[4:1],,,23,67,
1h[4:1]/2h[4:3],,3h[1:1],,7h[2:1],,,{16},,15,26,
{4}3h[4:3]/7h[4:3],,,,26,4v2[4:1]/8v6[4:1],,,
8,7,6q3[4:1],,4,3,2q7[4:1],,
6,5,4>8[4:1],,3,4,5<1[4:1],,
2,2,1,1^4[4:1],4^7[4:1],7^2[4:1],2^5[4:1],,
8,8,8,8^5[4:1],5^2[4:1],2^7[4:1],7^4[4:1],,
,{8},2,3,,7,6-3[8:1],,1-4[8:1],,8-5[8:1],,2-7[8:1],,,
,,,8,7,,1,2-5[8:1],,8-3[8:1],,6-1[8:1],,4-8[8:1],,,
1h[2:1],,,8,{4}8,,1-5[8:1],7-4[8:1],2-5[8:1],8-4[8:1],
,,1,{8},15,26,37,,48,37,2b/6b,{4},
8>4[2:1],6,6,,1<5[2:1],3,3,1-5[8:1],
7-4[8:1],5-2[8:1],4-8[8:1],2-6[8:1],8b,,8,7p2[2:1],
,,4,3q6[2:1],,,1,1^6[4:1],
,1>5[4:1],,7-3[8:1],,,,,
{8}6,5,4,3,2^7[4:1],,,,5,6,7,8,1^4[4:1],,,,
7,6,5,4,3^8[4:1],,,,7^4[4:1],,1^6[4:1],,3^8[4:1],,,,
2,3,4,5,6,,,15,26,37,48,15,,48,,26,
,48,37,26,15,,,,7,8,1,2,,7,6,5,
{4}1-5[16:3],1-4[16:3],1-6[16:3],,8-4[16:3],8-3[16:3],8-5[16:3],,
3-5[16:3],1-7[16:3],2-6[16:3],,7-5[16:3],1-3[16:3],8-4[16:3],,
6^1[4:1],1^4[4:1],4^7[4:1],7^2[4:1],2^5[4:1],5q4[4:1],,6b,
{8}4^1[16:3],4,5,6,7b,,7^4[16:3],8,1,2,3,4,5b,,56,56,
7^2[16:3],6,5,4,3b,,23,13,38,37,3/6b,,6q3[16:3],5,5,4,
4h[8:3],,,1,8,,,1,1-5[8:1],8-4[8:1],,,,1>8[4:3],1,,
{1},{8}4,2,7,5,,1,8,7,
8^5[16:3],2,1,8,7b,,6^3[16:3],7,8,1,2,3,4b,,2^7[4:1],3,
4,5,6,7,8b,,1-4[8:1],1-5[8:1],1-6[8:1],,,,8,8,7^2[16:3],6,
5,,,2,2,,2,1,8,7,1,1,,7>5[8:7],{4}7h[4:3],
,,,7b,
1-5[16:3],8-4[16:3],7-3[16:3],,8-4[16:3],1-5[16:3],2-6[16:3],,
1-5[16:3],8-4[16:3],2-6[16:3],,7^2[4:1],2^5[4:1],5^8[4:1],,
1p4[16:3],8q5[16:3],2-6[16:3],,5p8[16:3],4q1[16:3],7-4[16:3],,
3^6[16:3],7p2[16:3],1v8[16:3],,7^4[4:1],4^1[4:1],1^6[4:1],,
2-6[8:1],,4-8[8:1],,5-1[8:1],,7-3[8:1],,
2-6[8:1],4-8[8:1],5-1[8:1],7-3[8:1],,,23,18,
67,,26,,{8}48,37,26,15,,2<4[8:17],,2h[8:17],
{1},,,,E
Re:MASTER
最終更新:2026年10月13日 00:40