EASY
BASIC
ADVANCED
EXPERT
MASTER
(175)
{4}4>1[4:1],,8<5[4:1],,
{4}4>1[4:1],,8<5[4:1],,
{4}3>8[4:1],,7<4[4:1],,
{4}3>8[4:1],,7<4[4:1],,
{4}3>8[4:1],5,7<4[4:1],1,
{4}3>8[4:1],5,7<4[4:1],1,
{4}3>7[4:1],7<3[4:1],3>7[4:1],7<3[4:1],
{4}3>7[4:1],7<3[4:1],3,7b,
{8}5<8[8:1],5,2,2,3h[16:3],{16},4,{8}3,25,
{8}4>1[8:1],4,7,7,6h[16:3],{16},5,{8}6,74,
{8}5<8[8:1],5,2,2,3h[16:3],{16},4,{8}3,25,
{8}4>1[8:1],4,7,7,6h[16:3],{16},5,{8}6,74,
{8}5<8[8:1],5,3,3,4>1[8:1],4,6,6,
{8}5<8[8:1],5,3,3,4>1[8:1],4,6,6,
{8}1-5[8:1],8-4[8:1],1,8,2-6[8:1],1-5[8:1],2,1,
{8}8-4[8:1],7-3[8:1],8,7,1-3*-5[8:1],,1b,,
{16}6,5,6,,3,4,3,,6q2[8:1],5,6,,{4},
{16}3,4,3,,6,5,6,,3p7[8:1],4,3,,{4},
{16}6,5,6,,3,4,3,,6<1[8:1],5,6,,{4},
{16}3,4,2,,6,5,7,,{4}45,1b/8b,
{16}3,4,3,,6,5,6,,3p7[8:1],4,3,,{4},
{16}6,5,6,,3,4,3,,6q2[8:1],5,6,,{4},
{16}3,4,3,,6,5,6,,3p7[8:1],4,3,,{4},
{16}6,5,7,4,{4}7-4[8:1],3-8[8:1],6b,
{16}2h[8:1]/6h[8:1],,,3h[8:1]/7h[8:1],,,2h[8:1]/6h[8:1],,,1h[8:1]/5h[8:1],,,{24}1,2,3,4,,,
{16}7h[8:1]/3h[8:1],,,6h[8:1]/2h[8:1],,,7h[8:1]/3h[8:1],,,8h[8:1]/4h[8:1],,,{24}8,7,6,5,,,
{16}2h[8:1]/6h[8:1],,,3h[8:1]/7h[8:1],,,2h[8:1]/6h[8:1],,,1h[8:1]/5h[8:1],,,{24}1,2,3,4,,,{16}7h[8:1]/3h[8:1],,,6h[8:1]/2h[8:1],,,7h[8:1]/3h[8:1],,,8h[8:1]/4h[8:1],,,{24}8,7,6,5,,,
{8}24,3,57,6,24,3,{16}4,5,4,,
{8}75,6,42,3,75,6,{16}5,4,5,,
{8}31,2,86,7,31,2,{16}4,5,4,,
{16}7,8,7,8,6,1,6,1,5,2,5,2,{4}4bp5[4:3]/3>5[4:3],
{1},
{8}5/4-2[8:1],,8,8,8/4-2[8:1],8,8,8,
{4}8/4-2[8:1],5pp1[8:3],4-2[8:1],,
{8}4/5-7[8:1],,1,1,1/5-7[8:1],1,1,1,
{4}1/5-7[8:1],4qq8[8:3],5-7[8:1],,
{8}5/4-2[8:1],,8,8,8/4-2[8:1],8,8,8,
{4}8/4-2[8:1],5pp1[8:3],4-2[8:1],,
{8}4/5-7[8:1],,1,1,1/5-7[8:1],1,1,1,
{4}1/5-7[8:1],3-1[8:1],4-8[8:1],,
{8}3/4-6[8:1],,8,8,8/4-6[8:1],8,8,8,
{4}8/4-6[8:1],3qq7[8:3],4-6[8:1],,
{8}6/5-3[8:1],,1,1,1/5-3[8:1],1,1,1,
{4}1/5-3[8:1],6pp2[8:3],5-3[8:1],,
{8}3/4-6[8:1],,8,8,8h[4:3]/4-6[8:1],,,,
{4}4-6[8:1],,1h[4:1]/4-6[8:1],,
{4}8h[4:1]/5-3[8:1],,7h[4:1]/5-3[8:1],,
{8}6/5-3[8:1],,6,6,58,7,4b/6b,,
{8}25,3,47,6,25,3,47,6,
{8}2/5-1[8:1],5,4qq8[8:3],4,5-7[8:1],5,,,
{8}74,6,52,3,74,6,52,3,
{8}7/4-8[8:1],4,5pp1[8:3],5,4-2[8:1],4,,,
{8}25,3,47,6,25,3,47,6,
{8}2/5-1[8:1],5,4qq8[8:3],4,5-7[8:1],5,,,
{8}74,6,52,3,74,6,52,3,
{8}7/4-8[8:1],4,5pp1[8:3],5,4-2[8:1],4,,,
{8}38,7,16,2,38,7,16,2,
{8}8/3-7[8:1],3,6qq2[8:3],6,1-7[8:1],1,,,
{8}61,2,83,7,61,2,83,7,
{8}1/6-2[8:1],6,3pp7[8:3],3,8-2[8:1],8,,,
{8}8,8,8,8V25[8:5],8h[1:1],,,,
{4},,7,5/2qq2[4:1],
{2}2>5[8:1],7<4[8:1]/8>3[8:1],
{2}2>5[8:1]/1<6[8:1],8-5[8:1]/1>4[8:1],
{8}1h[1:1],,2,2,2,2,2q7[8:1],2,
{4}2,1-4[8:1]/8-5[8:1],18,2b/7b,
{8}4>1[8:1],4,7,7,8h[16:3],{16},7,{8}8,16,
{8}5<8[8:1],5,2,2,1h[16:3],{16},2,{8}1,38,
{8}4>1[8:1],4,7,7,8h[16:3],{16},7,{8}8,16,
{8}5<8[8:1],5,2,2,1h[16:3],{16},2,{8}1,38,
{8}4>1[8:1],4,6,6,5<8[8:1],5,3,3,
{8}4>1[8:1],4,6,6,5<8[8:1],5,3,3,
{8}8-4[8:1],1-5[8:1],8,1,7-3[8:1],8-4[8:1],7,8,
{8}1-5[8:1],2-6[8:1],1,2,8-6*-4[8:1],,8b,,
{16}7,7,8,,7,7,1,,7p3[8:1],7,2,,{4},
{16}2,2,1,,2,2,8,,2q6[8:1],2,7,,{4},
{16}7,7,8,,7,7,1,,7<4[8:1],7,2,,{4},
{16}2,4,3,,7,5,6,,{4}45,1b/8b,
{16}2,2,1,,2,2,4,,2q6[8:1],2,6,,{4},
{16}7,7,8,,7,7,5,,7p3[8:1],7,3,,{4},
{16}2,2,1,,2,2,4,,2<7[8:1],2,6,,{4},
{16}6,5,7,4,{4}7-4[8:1],3-8[8:1],6b,
{16}7h[8:1]/3h[8:1],,,1h[8:1]/5h[8:1],,,7h[8:1]/3h[8:1],,,1h[8:1]/5h[8:1],,,{24}1,2,3,4,,,
{16}2h[8:1]/6h[8:1],,,8h[8:1]/4h[8:1],,,2h[8:1]/6h[8:1],,,8h[8:1]/4h[8:1],,,{24}8,7,6,5,,,
{16}7h[8:1]/3h[8:1],,,1h[8:1]/5h[8:1],,,7h[8:1]/3h[8:1],,,1h[8:1]/5h[8:1],,,{24}1,2,3,4,,,
{16}2h[8:1]/6h[8:1],,,8h[8:1]/4h[8:1],,,2h[8:1]/6h[8:1],,,8h[8:1]/4h[8:1],,,{24}8,7,6,5,,,
{8}13,2,35,4,57,6,{24}1,2,3,4,,,
{8}86,7,64,5,42,3,{24}8,7,6,5,,,
{8}13,2,68,7,13,2,{24}8,7,6,5,,,
{16}2,1,2,1,3,8,3,8,4,7,4-1[8:1],7,4,,,,
E
Re:MASTER
最終更新:2026年10月06日 20:35