アットウィキロゴ

EVERGREEN

アーティスト Cranky

BPM EASY BASIC ADVANCED EXPERT MASTER Re:MASTER
145 2 4 8 11+ 13 -

EXPERT MASTER Re:MASTER
譜面制作者 Jack ぴちネコ -

EASY


BASIC


ADVANCED


EXPERT


MASTER

(145){8}
3h[4:1]/7h[4:1],,,37,,,,,,18,,,25,,47,,
2h[4:1]/6h[4:1],,,2pp1[8:7]/6pp5[8:7],{2},,,
{8}2h[4:1]/6h[4:1],,,26,,,,,,18,,,47,,25,,
3h[4:1]/7h[4:1],,,3qq4[8:7]/7qq8[8:7],{2},,,

{8}5/6h[2:1],4,3,2,1,28,{1}3>6[2:1]/7,{8}45,,
7h[2:1]/8,1,2,3,4,35,2/6^3[4:1],,,,,,13,,68,,
3h[2:1]/4,5,6,7,8,17,{1}2/6<3[2:1],{16},,27,,
18,,2,1,2,,7,8,7,,2,1,3,,7,8,6,,3,4,3,,6,5,6,4,7,3,{8}8w4[8:1],1,

8b,,7,68,7,,15,,3,24,3-7[12:1],,3/8-5[12:1],,2-6[12:1]/8,,
12,,3,24,3,,15,,7,68,7-3[12:1],,4-1[12:1]/7,,4/6-2[12:1],,
56,,5,46,5,,18,,4,35,4-8[12:1],,4/7-3[12:1],,5-1[12:1]/7,,
58,,2,13,2,,45,,7,68,7-3[12:1],,1-5[12:1]/7,,1b/8b,,
7/8h[4:1],6,5,3/4h[4:1],2,1,7/8h[4:1],6,5,3/4h[4:1],2,1,7/8-4[12:1],,18,,
1h[4:1]/2,3,4,5h[4:1]/6,7,8,1h[4:1]/2,3,4,5h[4:1]/6,7,8,1-5[12:1]/2,,18,,
7h[4:1]/8,1,2,3/4h[4:1],2,1,7/8h[4:1],6,5,3h[4:1]/4,5,6,7/8-4[12:1],,18,,
12,,68,68,,13,13,,{16}8,7,6,5,8,1,2,3,8-4[12:1],7,6,5,8b,,,,
25,,25,,25,,3,3,,3,,3,3h[8:1],,4,4,,3,,2,2,,2,2,,45,,36,36,,12,,
47,,47,,47,,6,6,,6,,6,6h[8:1],,4,5,{8}4,35,26,17,8w4[8:1],,8b,,
16,16,16,{16}7,7,,7,,7,7h[8:1],,8,8,6,,6,,6,,6,6,4,5,,27,27,,56,,
4,,4,,4,,5,5,,5,,5,5,,36,,36,,27,,27,,27,,18,18,,18,{8}1b-4[12:1]/8b-5[12:1],,
,,3,4,56,67,7^2[4:1]/8,,4,,3^6[4:1],,8,,7,,
18,7,6,5,34,23,1/2^7[4:1],,5,,6,,48,,26,,
18,2,3,4,56,67,7h[4:1]/8h[4:1],,,34,2h[8:1]/5h[8:1],,56,4h[8:1]/7h[8:1],,12,
3h[8:1]/8h[8:1],,78,1h[8:1]/6h[8:1],,45,36,,{16}1,2,3,4,1,8,7,6,1-5[12:1],2,3,4,1b,,,,

2b/4,3,4,3,,,5/7b,6,5,6,,,{1},{16}27,,,,
1/3b,2,1,2,,,6b/8,7,8,7,,,{4},,,,,
2h[4:1]/6h[4:1],{8},3h[4:1]/7h[4:1],,,1h[4:1]/5h[4:1],,,4h[4:1]/8h[4:1],,,2-5[12:1]/6-1[12:1],,2b/6b,,

3/7h[8:1],{16}5,6h[8:1],,4,5h[8:1],,3,,78,,34,,78,,2h[8:1]/6,,4,3h[8:1],,5,{8}4h[8:1],6,12,56,12,
3h[4:1]/7h[4:1],,,1h[4:1]/4h[4:1],,,2h[4:1]/6h[4:1],,,5h[4:1]/8h[4:1],,,3-8[12:1]/7-4[12:1],,3b/7b,,
2/6h[8:1],{16}8,7h[8:1],,1,8h[8:1],,2,,56,,12,,56,,3h[8:1]/7,,1,2h[8:1],,8,1h[8:1],,7,,2b/6b,,4b/8b,,,,
25,,47,,25,,6,6,,6,,6,6h[8:1],,5,5,,6,,7,7,,7,7,,45,,36,36,,12,,
47,,25,,47,,3,3,,3,,3,3h[8:1],,5,4,{8}5,46,37,28,1w5[8:1],,1b,,
38,16,38,{16}7,7,,7,,7,7h[8:1],,8,8,6,,6,,57,,6,6,1,8,,27,27,,45,,
38,,16,,38,,15,15,,15,,15,15,,37,,37,,26,,26,,26,,48,48,,48,4bqq1[4:3]/8bqq5[4:3],,,,
{1},,,E

Re:MASTER


名前:
コメント:

タグ:

+ タグ編集
  • タグ:
最終更新:2026年10月16日 21:39