アットウィキロゴ

Barbed Eye

アーティスト 柿チョコ×みきとP

BPM EASY BASIC ADVANCED EXPERT MASTER Re:MASTER
135 2 5 8 10+ 13 -

EXPERT MASTER Re:MASTER
譜面制作者 しろいろ rioN -

EASY


BASIC


ADVANCED


EXPERT


MASTER

(135){2},,
2-5[8:1]/6-1[8:1],3-8[8:1]/7-4[8:1],1s5[4:1],6h[16:3],
3-8[8:1]/7-4[8:1],2-5[8:1]/6-1[8:1],8w4[8:1],{4}27,45,
{2}3-8[8:1]/8-5[8:1],1-4[8:1]/6-1[8:1],8z4[4:1],3h[16:3],
4-1[8:1]/7-4[8:1],2-5[8:1]/5-8[8:1],1w5[8:1],2b/7b,
{16}7,,6,,5,,2,2,,8,,4,,6,6,,2,,3,,4,,7,7,,1,,5,,3,3,,
7,,6,,5,,2,2,,8,,4,,6,6,,3,3,,45,,27,,1h[16:3]/8h[16:3],,,,,27,27,,,

1b-6[8:1]/2b-5[8:1],,,12,,,,,,,34,,5,5,,,12,,68,,45,45,,3h[16:3],,,1,,56,,78,,
1b^6[8:1]/2b^5[8:1],,,12,,,,,,,78,,6,6,,,15,,47,,12,12,,7h[16:3],,,8,,46,,13,,
7b-4[8:1]/8b-3[8:1],,,78,,,,,,,56,,4,4,,,78,,13,,45,45,,6h[16:3],,,8,,34,,12,,
7b^4[8:1]/8b^3[8:1],,,78,,,,,,,12,,3,3,,,48,,25,,78,78,,2h[16:3],,,1,,35,,68,,

3h[16:3],,,2h[16:3],,,1^4[8:1],,,,5,,6,,78,,6h[16:3],,,7h[16:3],,,8^5[8:1],,,,4,,3,,12,,
4h[16:3],,,2h[16:3],,,8-4[8:1],,,,1,,1,,37,,5h[16:3],,,7h[16:3],,,1bw5[8:1],,,,,,,,,,
7h[16:3]/8,,,6h[16:3],,,5-1[8:1],,,,8,,2,,38,,1/2h[16:3],,,3h[16:3],,,4-8[8:1],,,,1,,7,,16,,
5h[16:3]/7,,,4,,,38,,2/4h[16:3],,,5,,,16,,3/8h[16:3],,,7,,,34,,1h[16:3]/6,,,2,,,56,,
24,,,57,,,36,,18,,2,7,3,6,4,5,{4}3b-8[8:1]/6b,7-3[8:1],2-5[8:1],6,

{16}18,,6,5,,3,4,,7,5,,2,4,,57,,2-5[8:1]/4,,,2,,,8,,5/7-3[8:1],,,7,,,1,,
45,,2,1,,7,8,,3,1,,6,8,,24,,5/7-4[8:1],,,7,,,1,,2-6[8:1]/4,,,2,,,8,,
1-4[8:1]/3,,,1/8-5[8:1],,,6,,,,7,,45,,12,,6/8-5[8:1],,,1-4[8:1]/8,,,3,,,,2,,45,,78,,
1/3h[16:3],,,4,,,18,,6h[16:3]/8,,,5,,,18,,1/3h[16:3],,,4,,,18,,2b/7b,,3,5,4,6,5,7,
1-4[8:1]*-6[8:1],,,,,,,,3/5h[16:3],,,7,,,28,,4h[16:3]/6,,,2,,,17,,68,,,13,,,45,,
2b/7b,,,,56,,,,2,1,,47,,15,,37,{4}3p7[8:1]/7p3[8:1],,18,5,

{16}2,1,2,1,2h[8:3],,1,1,,7,7,,5,4,5,4,7,8,7,8,7h[8:3],,8,8,,2,2,,4,5,4,5,
2,1,3,8,4,5,3,6,8,7,1,6,4,5,2,7,{2}1>7[4:1],8z4[8:1],
{16}3,3,4,3,3,5,2,2,6,6,5,6,6,4,7,7,2,2,4,2,2,6,1,1,7,7,5,7,7,3,8,8,
{12}48,7,6,15,2,3,48,7,6,15,2,3,{4}48,15,26,37,

4/8<1[2:1],,,,{16}2,,,3,,,4,,7,,,6,,,5,,
{1}1>8[2:1],{16}1h[16:3]/3,,,8h[16:3],,,6,,{4}4w8[8:1]/5,,
56,34,57,24,68,13,78,12,
{8}78,6,12,3,17,5,28,4,45,{16},13,,,68,,2-5[8:1]/7-4[8:1],,,,2b/7b,,,,

78,,3,4,,7,8,,3,5,,2,1,,56,,1/3-8[8:1],,,34,,,7,,6/8-5[8:1],,,18,,,4,,
12,,6,5,,2,1,,6,4,,7,8,,34,,6-1[8:1]/8,,,56,,,2,,1-4[8:1]/3,,,18,,,5,,
1-6[8:1]/7,,,1/2-5[8:1],,,4,,,,6,,46,,24,,2/8-3[8:1],,,7-4[8:1]/8,,,5,,,,3,,35,,57,,
1h[16:3]/3,,,8,,,45,,6/8h[16:3],,,1,,,45,,1h[16:3]/3,,,8,,,45,,2b/7b,,6,4,5,3,4,2,
8-3[8:1]*-5[8:1],,,,,,,,4h[16:3]/6,,,2,,,17,,3/5h[16:3],,,7,,,28,,13,,,68,,,45,,
2b/7b,,,,34,,,,7,8,,25,,48,,26,{4}2q6[8:1]/6q2[8:1],,18,4b,

{16}2,,3,,4,,6,6,,34,,25,3,4,3,4,2,,1,,8,,3,3,,12,,47,6,5,6,5,
8,,12,,34,,6,6,,25,,47,2,1,2,1,3h[16:3],,,4,,,17,,6h[16:3],,,5,,,28,,
7,,6,,5,,3,3,,56,,47,6,5,6,5,7,,8,,1,,6,6,,78,,25,3,4,3,4,
1,,78,,56,,3,3,,47,,25,7,8,7,8,6,6,,24,,57,,1h[16:3]/8h[16:3],,,,,27,27,,,
4,5,4,5,,18,,2-6[8:1]/7-3[8:1],,,27,,,,,,{1},,E

Re:MASTER


名前:
コメント:

タグ:

+ タグ編集
  • タグ:
最終更新:2026年10月31日 20:29