EASY
BASIC
ADVANCED
EXPERT
MASTER
(220){2},{12},,4,5,,,
37,,,,,,45,,3,4,,,34,,,45,,6,5,,,46,,,
45,,,35,,,34,,3,4,,,35,,,46,,6,5,,,3,,3,
4,,,45,,,46,,6,5,,,46,,,35,,3,{4}4,45,
3/6h[4:1],3h[4:1],7h[4:1],2h[4:1],6,6,{12}6,,4,5,,,
4h[4:1]/7h[4:1],,,,,2h[4:1]/5h[4:1],,,,47,,,,,8,1,,1,7-4[8:1],,,1,,,
2h[4:1]/5h[4:1],,,,,4h[4:1]/7h[4:1],,,,25,,,,,1,8,,,27,,,45,,,
2h[4:1]/5h[4:1],,,,,3h[4:1]/6h[4:1],{4},47,,1-5[8:1],8,,
45,45,36,36,27,2q7[4:1]/7,8b,,
4/6h[4:3],5,4,5,3h[4:3]/5,4,5,4,
{12}3,4,3,5,,,6,5,6,4,,,3,4,3,6,5,6,{4}4,27,
4-8[8:1]/6,7,5-1[8:1]/6,8,4-8[8:1]/6,7,5-1[8:1]/6,8,
4-8[8:1]/6,7,5-1[8:1]/6,8,46,35,26,,
3/5-1[8:1],2,3/4-8[8:1],1,3/5-1[8:1],2,3/4-8[8:1],1,
3/5-1[8:1],2,3/4-8[8:1],1,35,46,3/7h[1:2],,
4,5,4,6,3,5,{12}4,,4,{4}5,
12,78,56,34,1/2h[4:1],4h[4:1],5h[4:1],7,
7-3[8:1]/8-4[8:1],,1-5[8:1]/2-6[8:1],,78,25,12,47,
78,12,34,56,7h[4:1]/8,5h[4:1],4h[4:1],2,
1^6[4:1]/2^5[4:1],,,47,2^5[4:1]/5^8[4:1],,,47,
3-8[4:1]/6,5,4,5,3/6-1[4:1],4,5,4,
45,36,27,1-4[8:1]/8-5[8:1],1b/8b,,27,,
3^8[4:1]/6,5,4,5,3/6^1[4:1],4,5,4,
4h[12:17]/5,,7,{12},,5,,,5,,,5,,,4,{4}5,
4h[2:1]/8h[2:1],,,34,1h[4:1]/7h[4:1],{12},,2h[4:1]/8h[4:1],{4},1,
1h[2:1]/5h[2:1],,,56,2h[4:1]/8h[4:1],{12},,1h[4:1]/7h[4:1],{4},8,
46,46,35,35,{2}4^1[8:1]/7,2/5^8[8:1],
4^1[8:1]/7,2/5^8[8:1],4>5[2:1]/7,,
{12}47,,6,5,,3,4,,7,8,,2,1,,5,4,,,36,,,45,,,
25,,3,4,,6,5,,2,1,,7,8,,4,{4}5,36,45,
1h[4:3]/6h[4:3],,,,3h[4:3]/8h[4:3],,,,
1,1,8<1[2:1],,,,,1b,
3^8[16:3]/5h[4:11],,7^2[6:1],,3^8[6:1],,7^2[6:1],,
3^8[6:1],,7^2[6:1],,35,46,25,47,
4h[4:11]/6^1[6:1],,2^7[6:1],,6^1[6:1],,2^7[6:1],,
6^1[6:1],,2^7[6:1],,46,35,24,45,
1-7[8:1]/5,6,1-6[8:1]/5,4,1-7[8:1]/5,6,15,7,
4/8-2[8:1],3,4/8-3[8:1],5,4/8-2[8:1],3,48,3,
6^8[8:1],5,3^1[8:1],4,6^8[8:1],5,3^1[8:1],4,
6h[4:3],3,1,7>5[2:1],,,,,
3^8[6:1]/5,5,5/7^2[6:1],5,3^8[6:1]/5,5,5/7^2[6:1],5,
5/3^8[6:1],5,5/7^2[6:1],5,35,46,25,47,
4/6^1[6:1],4,2^7[6:1]/4,4,4/6^1[6:1],4,2^7[6:1]/4,4,
4/6^1[6:1],4,2^7[6:1]/4,4,46,35,24,45,
1-7[8:1]/5,6,1-6[8:1]/5,4,1-7[8:1]/5,6,15,7,
4/8-2[8:1],3,4/8-3[8:1],5,4/8-2[8:1],3,48,3,
12,34,56,78,18,67,45,2^7[4:3]/3^6[4:3],
,,,,4h[2:1]/5,5,{12}5,,4,5,,,
2h[4:1]/5h[4:1],,,,,4h[4:1]/7h[4:1],,,,25,,,,,1,8,,8,2-5[8:1],,,8,,,
4h[4:1]/7h[4:1],,,,,2h[4:1]/5h[4:1],,,,47,,,,,8,1,,1,27,,,45,,,
4h[4:1]/7h[4:1],,,,,3h[4:1]/6h[4:1],{4},25,,8-4[8:1],1,,
45,45,36,36,27,2/7p2[4:1],1b,,
3/5-1[8:1],2,3/4-8[8:1],1,3/5-1[8:1],2,3/4-8[8:1],1,
3/5-1[8:1],2,3/4-8[8:1],1,35,46,37,45,
1h[4:7]/5,,,6,,6,,6,
{12}6,5,6,3,4,3,6,5,6,3,4,3,6,5,6,4,,,2b/7b,,2b/7b,,,,
{1},,E
Re:MASTER
最終更新:2026年10月31日 20:34