EASY
BASIC
ADVANCED
EXPERT
MASTER
(135)
{2},{4}1b,8b,
{4}4q5[4:1],5<1[4:1],{2}1^4[8:1],
{4}5p4[4:1],4>8[4:1],{2}8^5[8:1],
{4}4q5[4:1],5<1[4:1],{2}1^4[8:1],
{2}45,{4}8b,1b,
{8}8-6[8:1],8,4-2[8:1],4,7-5[8:1],7,3-1[8:1],3,
{8}6-4[8:1],6,2-8[8:1],2,5-1[8:1],5,4,4,
{16}2,1,3,8,4,7,5,6,3,4,2,5,1,6,8,7,
{32}1,2,3,4,5,6,7,8,1,2,3,4,5,6,7,8,1,2,3,4,5,6,7,8,{4}1b,
{8}45,{16}3,4,{8}1,{16}6,5,{8}8-4[8:1],{16}3,3,,2,,1,
{16}6,5,6,2,6,4,6,8-4[8:1],{8}6,{16}1,1,{4},
{8}45,{16}1,4,{8}3,{16}8,5,{8}6^1[8:1],{16}2,2,,3,,4,
{16}6,5,6,2,6,4,6,8,6w2[8:1],4,{8},{4},
{8}45,{16}6,5,{8}8,{16}3,4,{8}1-5[8:1],{16}6,6,,7,,8,
{16}3,4,3,7,3,5,3,1-5[8:1],{8}3,{16}8,8,{4},
{16}2h[8:1],,7,3h[8:1],,8,4h[8:1],,1,5h[8:1],,2h[48:37],{4}6h[48:34],
{2},{24}15,48,37,26,15,48,{4}37,
{2}1q6[8:1]/2-5[8:1],{16}4h[8:1]/7h[8:1],,,2h[8:1]/6h[8:1],,,{8}48,
{2}6q3[8:1]/7-4[8:1],{16}2h[8:1]/5h[8:1],,,3h[8:1]/7h[8:1],,,{8}15,
{2}3p6[8:1]/4v5[8:1],{16}4h[8:1]/7h[8:1],,,2h[8:1]/6h[8:1],,,{8}48,
{2}35,{4}8b,1b,
{2}7-4[8:1]/8p3[8:1],{16}2h[8:1]/5h[8:1],,,3h[8:1]/7h[8:1],,,{8}15,
{2}2-5[8:1]/3p6[8:1],{16}4h[8:1]/7h[8:1],,,2h[8:1]/6h[8:1],,,{8}48,
{2}5v4[8:1]/6q3[8:1],{16}2h[8:1]/5h[8:1],,,3h[8:1]/7h[8:1],,,{8}15,
{2}46,{4}1b,8b,
{16}7h[16:3],,,8,{8}7,56,18,34,18,56,
{16}2h[16:3],,,1,{8}2,5/7V51[8:1],,4,3,28,
{16}7h[16:3],,,8,{8}7,2V48[8:1]/4,,5,6,17,
{16}2h[16:3],,,1,{8}2,5h[16:3]/7h[16:3],,5-1[8:1]/7,46,35,
{16}2h[16:3],,,1,{8}2,34,18,56,18,34,
{16}7h[16:3],,,8,{8}7,2^7[8:1]/4,,7,6,1/5-1[8:1],
{8}2,3,4-8[8:1],5,6,7,18,27,
{16}36,,,1pp4[16:3]/8qq5[16:3],,,{8}18,{4},27,
{16}2,2,4,4,3,3,5,5,4,4,6,6,5,5,7,7,
{16}1,8,{8}1,36,{16}7,5,,2,{8}4,{4}1bp4[8:1]/8bq5[8:1],
{4}18,{8}3,24,6,57,{16}8,8,{8},
{8}24,57,{16}4,4,5,5,{8}4,36,{4}2q7[8:1]/7,
{4}6^3[8:1],2,{16}1,1,8,8,{8}1,27,
{4}3^6[8:1]/6,{24}7,8,1,{8}2,{4}8w4[8:1],8,
{4}2^7[8:1]/6^3[8:1],26,{8}26,3h[8:1]/7h[8:1],{16},37,{8},
{8}2-6[8:1],7-3[8:1],2,7,1,18,{4}2/7p2[8:1],
{4}3^6[8:1],7,{16}8,8,1,1,{8}8,36,
{16}18,27,36,45,{8}36,{16}2,1,,7,{8}8,{4}3b/6b,
{8}45,4-7[8:1]/5,,3/4-2[8:1],,4-6[8:1]/5,,3/4-8[8:1],
{8},4/5-2[8:1],,5-7[8:1]/6,,4/5-3[8:1],,5-1[8:1]/6,
{8},4-7[8:1]/5,,3/4-2[8:1],,4-8[8:1]/5,,3/4^1[8:1],
{8},4/5^8[8:1],,45,,34,{4}8b,
{8}45,4/5-2[8:1],,5-7[8:1]/6,,4/5-3[8:1],,5-1[8:1]/6,
{8},4-7[8:1]/5,,3/4-2[8:1],,4-8[8:1]/5,,3/4^1[8:1],
{8},4/5^8[8:1],,4w8[8:1]/5,,4,,26,
{16}4,8,3,7,2,6,1,5,{32}1,2,3,4,5,6,7,8,{4}1b,
{1}6h[1:1],
{4}3h[1:1],4,5,6,
{8}7h[8:3],,,5h[8:5],,,,,
{8}4h[8:3],,,7h[8:5],,,,,
{8}1^6[4:1],1,6^3[4:1],6,3^8[4:1],3,8^5[4:1],8,
{8}5^2[4:1],5,2^7[4:1],2,7^5[16:3],7,4,4,
{16}2,4,{8}3,{16}7,5,{8}6,{16}1,4,{8}3,{16}8,5,{8}6,
{16}4,5,{8}4pp4[4:1]*qq4[4:1],{4},,4b/8b,
{16}2h[16:3],,,1,{8}2,34,67,12,45,78,
{16}2h[16:3],,,4,{8}2,5/7V51[8:1],,4,3,28,
{16}7h[16:3],,,5,{8}7,2V48[8:1]/4,,5,6,17,
{16}8h[16:3],,,1,{8}8,2h[16:3]/4h[16:3],,2/4-8[8:1],35,46,
{16}7h[16:3],,,8,{8}7,56,23,78,45,12,
{16}7h[16:3],,,5,{8}7,2^7[8:1]/4,,7,6,1/5-1[8:1],
{8}2,3,4-8[8:1],5,6,7,18,27,
{16}36,,,1pp4[16:3]/8qq5[16:3],,,{8}18,{4},2-6[8:1]/7-3[8:1],
{1}2b/7b,
E
Re:MASTER
最終更新:2026年10月04日 18:13