アットウィキロゴ

オパ! オパ! RACER -GMT mashup-

アーティスト COSIO(ZUNTATA/TAITO)「ファンタジーゾーン」「RIDGE RACER」

BPM EASY BASIC ADVANCED EXPERT MASTER Re:MASTER
172 2 4 7+ 10+ 13+ -

EXPERT MASTER Re:MASTER
譜面制作者 Jack チャン@DP皆伝 -

EASY


BASIC


ADVANCED


EXPERT


MASTER

(172){4},,,,
18,4,3,2,{8}18,18,{4}5,6,7,
18,4,3,2,{16}2/7b,,8,1,8,,2b/7,,1,8,1,,2-6[8:1]/7b,,8,8,
,,,,7,,,,6,,3,,5,4,,4,5,,3,,5,4,5-7[16:1],4,5-3[16:1],,,,,,1,,
28,,,37,,,8,,17,,,26,,,1,,28,,,3h[16:5]/7h[16:5],{8},,,3,2,1,
8h[2:1],,,,,6,7,8,1h[4:1],,2h[4:1],,3,4,{16}5,4,,4>5[16:21]/5<4[16:21],
{1},,

{8}2-6[8:1],6-2[8:1],,,7-3[8:1],3-7[8:1],{4},1h[4:1],8h[4:1],7h[4:1],8-5[2:1],
,,,{16},,2,1,{2}2-6[2:1],,
1v7[8:1]/5v3[8:1],4v2[8:1]/8v6[8:1],1v4[8:1]/7v4[8:1],2v5[8:1]/8v5[8:1],
{8}4,4,5,5,3,3,6,6,{16}2,7,2,7,2,7,2,7,1,8,1,8,{8}1b,,

1-5[8:1],5-1[8:1],,,7-3[8:1],3-7[8:1],,,1h[16:3],{16},5,,,,,,,7,8,1,2,,8,
,1h[16:11],,,,,,,,,,,7,8,,7,,6h[16:11],{8},,,,,7b,,
7-3[8:1],3-7[8:1],,,1-5[8:1],5-1[8:1],,,7h[16:3],{16},8,,,,,,,3,,5,4,,7h[16:25],
{4}4,4,3,3,{8}2,2,2,2,{16}1,8,1,8,1b,,,,

6,,5,,4,3,,4,5,4,,5,4,,5,,6,5,,4,1,8,7,6,8,1,2,3,8,7,6,5,
6,,,7,,,8,,3,,,2,,,1,,45,,,36,,,27,,36,,,27,,,18,,
1,,,,2,,,,3,,6,,4,5,,5,4,,6,,4,5,4-2[16:1],5,{8}4-6[16:1],,,2-5[8:1],
8h[16:3],,,8-4[8:1],2h[16:3],,,2-5[4:1],{1}7h[16:3],

{16}2,1,,2,7,8,,7,,,,,,,,,,6,7,8,3,2,1,8,7,6,,1,,5,4,,
1,2,3,4,5,6,,2,1,8,7,,1,2,3,4,{8}3h[8:3],,4,4,6h[8:3],,7,7,
3h[8:3],,6,6,7,6,7,8,1h[2:1],,,,,4,3,2,
1h[4:1],,2h[4:1],,1h[8:1],8,{16}2,8,,2p3[16:9]/7q6[16:9],{1},

{16}6,5,4,3,,,6,5,4,3,,,6,5,4,,2,3,4,5,8,,3,4,7,,8,,6,7,8,1,
6,,,,7,,,,6,,3,,5,4,,4,5,,3,,5,4,5-7[16:1],4,5-3[16:1],,,,,,,,
,,8,1,2,3,4,5,2,1,8,7,6,,2,,6,7,8,1,2,,7,,7,,7,,1,8,,8,
4,5,6,7,8,,3,5,3,,6,,6,4,6,4,5,3,5,3,4,2,4,2,8,3,6,1,8,1,5,1,

{4}8<1[1:1],,,,,{16},,1,8,1h[16:3],,,2h[16:3],,,1>8[8:11],,
{4},,,,,,,1b,
8<1[1:1],,,,,{16},,1,8,1h[16:3],,,2h[16:3],{8},1,
4,4,5,5,4,4,5,5,{16}3,6,3,6,2,7,2,7,1,8,1,8,{8}1b,,
8-3[8:1],3-6[8:1],,,2-7[8:1],7-4[8:1],,,8h[16:3],{16},4,,,,,,,2,1,8,7,,1,
,8h[16:11],,,,,,,,,,,2,1,,2,,3h[16:11],{8},,,,,2b,,
2-7[8:1],7-4[8:1],,,8-3[8:1],3-6[8:1],,,2h[16:3],{16},1,,,,,,,6,,4,5,,7,
{8}4,5,3,6,2,7,1,8,{16}1,8,1,8,2,7,2,7,3,4,5,6,{4}7b,

6,3,5,1b,{16}5,,3,,5,4,5-7[16:1],4,5-3[16:1],,,,,,1,,
28,,,37,,,8,,17,,,26,,,1,,28,,,3h[16:5]/7h[16:5],{8},,,3,2,1,
8h[2:1],,,,,6,7,8,1h[4:1],,2h[4:1],,3,4,{16}5,4,,5h[16:13],
{8}4b,4,3b,3,2b,2,1b,,2b/7b,{16}4,5,4,,2b/7b,,5,4,5,,2b/7b,,45,45,
{1},,,E

Re:MASTER


名前:
コメント:

タグ:

+ タグ編集
  • タグ:
最終更新:2026年10月16日 21:39