EASY
BASIC
ADVANCED
EXPERT
MASTER
(168)
{8}1,2,3,4,5,6,7,8,
{8}8,7,6,5,4,3,2,1,
{4}1>5[4:1],5<1[4:1],{2}1>5[4:1],
{1}8<1[2:1],
{8}3,4,3,3h[2:1],2,1,8,7,
{8}6,5,6,6h[2:1],7,8,1,2,
{8}1,5,4,8,17,26,35,4,
{4}1-3[8:1]/8-4[8:1],1-5[8:1]/8-6[8:1],18,1b,
{8}8,{16}3,4,{8}3,6h[4:1],8,3h[4:1],1,6,
{8}1,{16}6,5,{8}6,3h[4:1],1,6h[4:1],8,3,
{8}5,{16}1,8,{8}1,5h[4:1],4,1h[4:1],8,5,
{4}1-5[8:1]/8-6[8:1],1-3[8:1]/8-4[8:1],18,{8}27,45,
{8}3q6[4:1],,,8,,8,{4}8,
{8}6p3[4:1],,,1,,1,{4}1,
{8}1,8,2,7,3,6,4,5,
{8}38,{16}2,1,{8}2,38,16,{16}7,8,{8}7,16,
{1}7p4[2:1]/8pp3[2:1],
{4}25,{8}3,4,,3,{4}8,
{1}1qq6[2:1]/2q5[2:1],
{4}47,{8}5,6,,5,1,26,
{1}1qq2[4:3]/5qq6[4:3],
{4},{8},1^4[4:1],,8,7,6,
{4}5,{8}1,28,{4}37,{8}8,4qq4[8:3]*pp4[8:3],
{2},{8},8,{4}8b,
{8}2h[8:1],{16}4,3,{8}4,2,7h[8:1],{16}5,6,{8}5,7,
{8}3h[8:1],{16}1,2,{8}1,3,6h[8:1],{16}8,7,{8}8,6,
{8}2h[8:1],{16}4,3,{8}4,2,8h[8:1],{16}2,1,{8}2,8,
{8}4h[8:1],{16}6,5,{8}6,4,6h[8:1],{16}8,7,{8}8,6,
{8}1h[8:1],{16}5,4,{8}6,1,8h[8:1],{16}4,5,{8}3,8,
{8}4h[8:1],{16}8,1,{8}7,4,5h[8:1],{16}1,8,{8}2,5,
{8}1v4[8:1]*v6[8:1],1,{4}1,8v3[8:1]*v5[8:1],8,
{4}2-6[8:1],1-5[8:1],8-4[8:1],7b,
{4}1q5[8:1]/5q1[8:1],1qq7[8:1]/5qq3[8:1],,{8},2h[8:5],
{8},3,{4}3,{8}8,8h[4:1],,4,
{4}4p8[8:1]/8p4[8:1],4pp6[8:1]/8pp2[8:1],,{8},7h[8:5],
{8},6,{4}6,1,8,
{4}2q6[8:1]/6q2[8:1],2^7[8:1]/6q3[8:1],,{8},4h[8:3],
{8},6,{4}6q3[8:1],{2}3p6[8:1],
{8}2,{16}8,1,{8}8,3,7,{16}1,8,{8}1,6,
{8}8,7,6,5,4,36,27,18,
{1}7qq3[2:1],
{4}2^5[4:1],7<3[8:3],{2},
{1}2pp6[2:1],
{1}4qq4[2:1]*pp4[2:1],
{1}4pp8[2:1],
{4}7^4[4:1],2>6[8:3],{2},
{1}8pp4[2:1],
{4}1^3[8:1]/8^6[8:1],1q5[4:1]/8p4[4:1],{2},
{8}3,3,4,5,{4}5,{8}6,6,
{8}5,4,{4}4,1h[8:3],{8}8,8,
{4}27,{8}2h[8:1],7h[8:1],1h[8:1],8h[8:1],4h[8:1],8,
{8}37,15,26,48,{4}2q6[4:1]/6q2[4:1],2<6[2:1]/6>2[2:1],
{2},{4},{8}37,48,
{4}1<5[4:1]/5,5>1[4:1],1<5[4:1],5q1[4:3]*p1[4:3],
{1},
{8}45,45,,27,,18,{4}36,
{4}3h[8:3],{8}2,2h[4:1],,3,4,5,
{8}7h[2:1],6,5,4,{4}3^6[8:1],3,
{4}1h[8:3],{8}7,7h[4:1],,6,5,4,
{8}1,8,2,7,{4}3-8[8:1]/6-1[8:1],3b/6b,
{4}6h[8:3],{8}7,7h[4:1],,6,5,4,
{4}3h[2:1],{8}4,5,{4}6-3[8:1],6,
{4}1h[8:3],{8}7,7h[4:1],,6,5,4,
{8}27,27,45,45,{4}1-5[8:1]/8-4[8:1],1b/8b,
{4}2^5[4:1],{8}1,8,{4}7^4[4:1],{8}8,1,
{4}2,{8}1,5,2,6,3,7,
{4}4^1[4:1],{8}8,7,{4}6^1[4:1],{8}2,3,
{8}4,5,6,7,{4}8-4[8:1],8,
{4}1^6[4:1],{8}2,3,{4}4^7[4:1],{8}3,2,
{4}1^4[4:1],{8}5,6,{4}7^2[4:1],{8}6,5,
{1}4>5[2:1],
{8}1,1,1,28,37,46,5,5,
{8},7,8,6,1,5,2,4,
{1},
{8}1,2,3^6[8:1],2,{4}1h[4:1],{8}8,7,
{8}6^3[8:1],7,{4}8h[4:1],1^3[8:1],{8}8,7,
{4}6h[4:1],{8}5h[8:1],7h[8:1],4h[8:1],8h[8:1],3,1,
{8}2,3,4qq4[4:1]*pp4[4:1],4,{2},
{8}8,7,6^3[8:1],7,{4}8h[4:1],{8}1,2,
{8}3^6[8:1],2,{4}1h[4:1],8^6[8:1],{8}1,2,
{4}3h[4:1],{8}4h[8:1],2h[8:1],5h[8:1],1h[8:1],6,8,
{8}7-4[8:1],7,2-5[8:1],2,{2}8bw4[8:1],
{8}1-5[8:1],7-3[8:1],1^6[8:1],7,{4}1,{8}8-4[8:1],2-6[8:1],
{8}8^3[8:1],2,{4}8,1pp3[8:1],8qq6[8:1],
{4}2h[4:1],{8}8,7,6,5,4,3,
{4}1^6[8:1]/2^5[8:1],1-5[8:1]/2-6[8:1],,3b/8b,
{1}5<4[2:1],
{4}4h[4:3]/5,7,1,3,
{1}3>5[2:1]/4q5[2:1],
{16}1,2,3,4,5,6,7,8,{24}1,2,3,4,5,6,7,8,1,2,3,4,
{8}8,4,7,3,6,2,5,1,
{8}8,1,7,2,{2}6<3[8:5],
{2},{16}4b,4b,
E
Re:MASTER
最終更新:2026年10月04日 09:39