| アーティスト |
光吉猛修「デイトナ Championship USA」 |
EASY
BASIC
ADVANCED
EXPERT
MASTER
(240)
{8}7,,7,{4}2,7,7,7,7,7,7,2h[8:11],,,{8},{1}1h[2:3],8h[1:1],{4}7,,6b,5b/6b,
{1}3bqq8[2:3]/4bpp7[2:3],,{8}78,,,16,,,25,,,34,,,{4}3b,5b/6b,
{1}5b>8[2:1]*-8[2:1],{4},2,1^4[8:1]/8^5[8:1],18,{8},8,{4}8,2-5[8:1],1,7-4[8:1],8,3b,2b/6b,
{8}1b/7b,,,8b,,,{4}8,7-4[8:1],1,2-5[8:1],8,7-4[8:1],1,2-5[8:1],8,7-4[8:1],1,1b,2b/6b,
{1}3b-8[2:1]/5b-8[2:1],{4},7,1^4[8:1]/8^5[8:1],18,{8},1,{4}1,7-4[8:1],8,2-5[8:1],1,7b,3b,
{8}2b/8b,,,1b,,,{4}1,2^5[8:1],8,7^4[8:1],1,2^5[8:1],8,7^4[8:1],1,1q6[8:1],7,8p3[8:1],2,
1,3h[4:1],1h[4:1],8h[4:1],{8}6-3[8:1],6,{4},1h[4:1],8h[4:1],2h[8:3],{8},5,5,,6,,46,5b,,3b,,2b/7b,,,
18,,7h[8:3],,,1h[8:3],,,4,3,4p8[4:1],3,{2},3,2,1,1b/8b,{4}5b,2b/6b,
{1}1bv4[2:1]/7bv4[2:1],{4},2,1^6[8:1]/2^5[8:1],12,{8},8,{4}8,2^5[8:1],1,7^4[8:1],8,3b,2b/6b,
{8}1b/7b,,,8b,,,{4}8,7^4[8:1],1,2^5[8:1],8,7^4[8:1],1,2^5[8:1],8,7^4[8:1],1,1b,5b/6b,
{1}7b-2[2:1]/8b-5[2:1],{4},7,8^3[8:1]/7^4[8:1],87,{8},1,{4}1,7p3[8:1],8,2q6[8:1],1,7b,1b/3b,
{8}2b/8b,,,1b,,,{4}1,2q6[8:1],8,7p3[8:1],1,2q6[8:1],8,7p3[8:1],1,1q6[8:1],7,8p3[8:1],2,
1,{8}7h[8:3],,,8,,,8,7,{4}16,8h[4:1],1,78,{8}2h[8:3],,,1h[8:3],,,3,5b,,3b,,5b-3[8:1]/6b-8[8:1],{2},
{8}7,7h[4:1],,2h[8:3],,,1,3,1p5[4:1],3,{2},3,2,1,{4}8b,1b/8b,
{8}3b/6b,,,1b,{2},{8}2,2,7,7,1,1,8,8,2,1,2,7,8,7,3,4,3,6,5,6,1-6[8:1],8-3[8:1],1,8,
{4},12,78,1/2-7[4:1],7>5[2:1],{1},{8}1,1,8,{4}3h[4:1],6p2[4:1],{1}2-7[4:1],{8},
1p5[4:1]/2,,{2},{8}3,4p7[4:1],3,4,,,{4}2,56,34,36,{8}4-1[8:1]/5-8[8:1],45,{4},,2,1,
1h[4:1]/8h[4:1],,{8}2/8h[4:1],2,,,3/8h[4:1],3,,,{2}4/8h[4:1],
5h[4:1]/8h[4:1],{8}4/8h[4:1],4,,,3/8h[4:1],3,,,{2}2/8h[4:1],
3h[4:1]/8h[4:1],4^1[4:1]/8h[4:1],8h[4:1],{8}8,4,7,3,6,4,5,3,6,4-1[4:1]*-7[4:1],,{1},
{8}1/8-3[8:1],,2,2,,1-6[8:1],,8,,7-4[8:1],,1,1,,27,,2-5[8:1],,8,8,,7,,45,,18,1-5[8:1]/8-4[8:1],,{2}1b/8b,
{8}2q6[8:1],,8,8,,7p3[8:1],,1,,2q6[8:1],,7,7,,28,,6h[4:1],,
4h[8:1],5h[8:1],3h[8:1],4h[8:1],{4}2-5[8:1],1-6[8:1],3-8[8:1],4-7[8:1],,
1q6[8:1],{8}7,7,,8p3[8:1],,2,,1q6[8:1],,7,7,,18,,8p3[8:1],,2,2,,1,,45,,18,1-5[8:1]/8-4[8:1],,{2}1b/8b,
{8}6q2[8:1],,4,4,,3p7[8:1],,5,,6q2[8:1],,4,4,,18,,
27,,,{4}1<5[4:1],5>1[4:1],1<5[4:1],5>1[4:1],1<5[4:1],5>1[4:1],1<5[4:1],5>1[4:1],1<5[4:1],5>1[4:1],1w5[4:1],,,8b,2b/6b,
{1}1b>5[2:1]/5b<1[2:1],{4},3,3^8[8:1]/4^7[8:1],34,{8},5,{4}5,3-8[8:1],4,6-1[8:1],5,4b,3b/7b,
{8}2b/6b,,,8b,,,{4}5,6-1[8:1],4,3-8[8:1],5,6-1[8:1],4,3-8[8:1],5,6-1[8:1],4,4b,4b/5b,
{1}4bp5[2:1]/5bq4[2:1],{4},6,6^1[8:1]/5^2[8:1],65,{8},4,{4}4,3p7[8:1]/4,5,6q2[8:1]/5,4,3b,1b/8b,
{8}2b/7b,,,3b/6b,{2},{8}3,3,6,6,4,4,5,5,2,1,3,7,8,6,3,4,2,6,5,7,1,7,2,8,3,1,3,6,8,6,3,1,3,6,8,6,1,8,1b/2b,
{1}7b/8b,,,1q3[16:77],{2},8,7,{16},{2}6,{16}5,{1},,,,E
Re:MASTER
- MASTER譜面を追加しました。修正等ありましたらよろしくお願いします。 -- けもがみ (2026-08-02 18:30:23)
最終更新:2026年10月04日 09:40