アットウィキロゴ

Conquista Ciela

アーティスト 光吉猛修「バーチャロン」

BPM EASY BASIC ADVANCED EXPERT MASTER Re:MASTER
140 2 4 8 9+ 12+ -

EXPERT MASTER Re:MASTER
譜面制作者 はっぴー 某S氏 -

EASY


BASIC


ADVANCED


EXPERT


MASTER

(140)
{4},,{16},,4,5,{4}3b/6b,
{2}4-1[4:3],8p3[4:3],,{8},,,1>5[8:5],{1}5<1[2:1],{16}56,,,15,,,34,,,48,,,16,,38,,
{2}3q8[4:3],1-4[4:3],,{8},,,8<4[8:5],{1}4>8[2:1],{16}43,,,84,,,65,,,51,,,83,,61,,

1h[4:1]/8,,,,2,,3,4,3h[16:3],,,5h[16:3],,,7h[8:1],,{4}8>4[4:1],4<8[4:1],{8}8,1,2,3,
{16}4-7[8:1],,,5,,,8,,{4}8^5[8:1],8>6[4:1],8,7,{16}7h[16:3],,,8h[16:3],,,1,,
3h[16:3],,,2h[16:3],,,1,,{4}1-5[8:1],7-4[8:1],3-7[8:1],5w1[8:1],5,{8}4,5,
{16}4h[16:3]/6,,,3,,,25,,{4}4/7h[4:1],8,
{16}1/8h[4:3],,,1,,,6,,,6,,,1,,7,,3h[16:3],,,4h[16:3],,,5,,,6h[16:5],,,5,,5,,

3h[2:1],,,4,,,2,,{4}2-5[8:1],28,{16}6h[2:1],,,5,,,7,,{4}7-4[8:1],17,
{16}3h[2:1],,,4,,,2,,{4}2-5[8:1],28,{16}7h[8:3],,,5,,,2h[16:3],,,4,,,5,,4,,
7h[2:1],,,8,,,6,,{4}6-1[8:1],67,{16}2h[2:1],,,1,,,3,,{4}3-8[8:1],32,
{16}7h[2:1],,,8,,,6,,{4}6-1[8:1],67,{16}3h[8:3],,,1,,,6h[16:3],,,8,,,4,,5,,

34,,,25,,,16,,{4}7-4[8:1]/8-3[8:1],78,{16}65,,,74,,,83,,{4}2-5[8:1]/1-6[8:1],21,
{16}7/8^3[8:1],,,6,,,5,,4^7[8:1],,,3,,,2,,1h[8:3],,,3,,,8h[16:3],,,6,,,18,,27,,
3/4h[16:3],,,5h[16:3],,,6,,6h[16:3]/8,,,4h[16:3],,,2,,1/2h[16:3],,,5h[16:3],,,7,,{8}18,,8,7,
{16}6h[16:3],,,5h[16:3],,,4h[8:1],,{4}3,2q6[8:1]/6q2[8:1],26,1^6[8:1]/5^2[8:1],15,{8}3,4,
{16}56,,,34,,,78,,,12,,,37,,15,,43,,,65,,,21,,,87,,,62,,84,,

{1}1-5[4:3],8-4[4:3],{2}3-8[4:1],6-1[4:1],4-8[4:1],{16}5,,,6,,,7,,
3/8-4[8:1],,,,1,,2,,3-7[8:1],,,4,,,5,,6-2[8:1],,,7,,,8,,{8}1-5[8:1],,2,3,
{4}4h[4:1]/6,2,4/6h[4:1],8,{16}12,,,78,,,13,,,68,,,34,,56,,

{4}4h[4:1],3,{16}6h[16:3],,,7h[16:3],,,8h[8:1],,{4}1s5[16:3],,8-4[8:1],8>4[4:1]*<4[4:1],
8,,{16}1h[16:3],,,2h[16:3],,,3h[8:1],,{2}4-8[8:1],{16}4,,,3,,,2,,
{8}1-5[8:1],,16,7,8-4[8:1],,38,2,{4}1-5[8:1],18,{16}7h[16:3],,,5h[16:3],,,4h[8:1],,
{4}3h[2:1],5,{16}6h[2:1],,,5,,,4,,{4}4^1[8:1],7,8^5[8:1],2,

{16}34,,,34,,,56,,,56,,,34,,25,,46,,,46,,,35,,,35,,,46,,37,,
2h[8:1]/4h[8:1],,,2h[8:1]/4h[8:1],,,5h[8:1]/7h[8:1],,,5h[8:1]/7h[8:1],,,18,,27,,
6h[8:1]/8h[8:1],,,6h[8:1]/8h[8:1],,,1h[8:1]/3h[8:1],,,1h[8:1]/3h[8:1],,,27,,18,,

{4},,{16},,1,8,{4}2b-5[8:1]/7,28,,{16},,8,1,{4}7-4[8:1]/2,
{16}3h[16:3]/7,,,2h[16:3],,,1,,6h[16:3],,,7h[16:3],,,8,,8-3[8:1],,,1,,,1,,{4}45,27,
{16}1/8h[8:3],,,7,,,3,,8/1h[8:3],,,2,,,6,,4/5h[8:3],,,6,,,2,,{8}18,,1,8,
{16}3h[16:3],,,5h[16:3],,,6,,{4}27,1q6[2:1]/8p3[2:1],18,,,4-1[2:1]/5-8[2:1],45,,,{16}1,8,2,7,
4h[8:1]/8h[8:1],,,2h[8:1]/6h[8:1],,,3h[8:1]/7h[8:1],,,1h[8:1]/5h[8:1],,,8,1,8,,
5h[8:1]/1h[8:1],,,7h[8:1]/3h[8:1],,,6h[8:1]/2h[8:1],,,8h[8:1]/4h[8:1],,,1,8,1,,
{32}1,2,3,4,5,6,7,8,{4}1b-5[8:1],

8h[4:1],{16}7,,6,5,6h[16:3],,,4h[16:3],,,2h[8:1],,{4}1<5[4:1],5>1[4:1],{8}1,8,7,6,
{16}5-2[8:1],,,3,,,1,,{4}1^4[8:1],1<3[4:1],1,2,{16}2h[16:3],,,1h[16:3],,,8,,
6h[16:3],,,7h[16:3],,,8,,{4}8-4[8:1],8/2-5[8:1],2/6-2[8:1],6/4w8[8:1],4,{16}5,,4,,
3h[16:3]/6,,,2,,,1,,{4}1-5[8:1]/8-6[8:1],1-3[8:1]/8-4[8:1],18,27,{16}7h[16:3],,,8h[16:3],,,1,,
3h[16:3],,,2h[16:3],,,1,,{4}1-5[8:1],1/7-4[8:1],7/3-7[8:1],3/5w1[8:1],5,{8}4qq1[2:1]/8qq5[2:1],48,
{2}48,{8},,36,47,{2}5-2[8:1]/8-5[8:1],1^4[8:1]/5^8[8:1],{1}4-1[2:3]/8p3[2:3],,
{16}4,5,36,,1,8,2,3b/6b,{1},,,,E

Re:MASTER


  • MASTER譜面を追加しました。修正等ありましたらよろしくお願いします。 -- けもがみ (2026-08-01 10:51:45)
名前:
コメント:

タグ:

+ タグ編集
  • タグ:
最終更新:2026年10月04日 09:40