アットウィキロゴ

Operation☆DOTABATA!

アーティスト Mitsukiyo「ブルーアーカイブ -Blue Archive-」

BPM BASIC ADVANCED EXPERT MASTER Re:MASTER
140 3 6 11 13 -

EXPERT MASTER Re:MASTER
譜面制作者 サファ太 アマリリス -

BASIC


ADVANCED


EXPERT


MASTER

(140)
{8}4/7h[4:1],,5p4[4:1],,,,,,
{8}5/2h[4:1],,4q5[4:1],,,,,,
{8}4/7h[4:1],,5q8[4:1],,,,,,
{8}7/8v3[8:1],,,{16},D6,,C,,A1/D2,,,,,
{16}7/8,,,,2h[16:3],,,1,,3,,3h[16:3],,,4,,
{16}3/4,,,,6h[16:3],,,5,,7,,7h[16:3],,,8,,
{16}7,,18,,12,,,35,,35,,,46,,46,,
{8}7b/8b,12,3b/4b,56,1b-5[8:1]/8b-4[8:1],,,,
{16}7,5,6,4,5,,34,,2h[8:1],,3h[8:1],,4h[8:1],,5,,
{16}4,6,5,7,5v4^2[4:1],,8,,8,,,,1x,,,,
{16}2,4,3,5,4,,56,,7h[8:1],,6h[8:1],,5h[8:1],,4,,
{16}5,3,4,2,3,,24,,3bx/5bx,,4bx/6bx,,5bx/7bx,,,,
{16}6,8,7,1,8,,12,,3h[8:1],,2h[8:1],,1h[8:1],,8,,
{16}1,7,8,6,8v1^3[4:1],,5,,,,,,A4/B4,,,,
{16}3,1,2,8,1,,78,,6h[8:1],,4h[8:1],,2h[8:1],,8,,
{16}7-3[8:1]/8-4[8:1],,,,87,,,,1bx/2bx,,3bx/8bx,,4bx/7bx,,,,
{8}6-4[8:1],47,4,3,2-4[8:1],14,5,6,
{8}7-5[8:1],5-3[8:1],3<7[4:1],2,1,,E2,,
{8}3-5[8:1],25,5,6,7-5[8:1],85,4,3,
{8}2x/4x,,4x-6^7[8:1]/5x-7[8:1],,5x-3^2[8:1]/4x-2[8:1],,4x/5x,,
{8}2x-8[8:1],2,8,7,6-8[8:1],5,8,1,
{8}2-8[8:1],3,7-3-7[4:1],6,2h[8:1],,2x,1/6x,
{8}15,14,48,48,47,47,46,46,
{8}4-6^7[8:1]/5-3^2[8:1],,4x/5x,,1b/8b,,,,
{16}2/1h[4:1],,,,4,,,2,2h[8:1],,3,,2,,14,,
{16}5/8h[4:1],,,,6,,,7,7h[8:1],,6,,7,,58,,
{16}1/4h[4:1],,,,3,,,2,1,,12,,18,,78,,
{16}16,,,,57,,,7,8,,17,,28,,1/2h[8:7],,
{8}3,4,5,6,7,8,1,34,
{8}12,8,78,6,45,3,12,47,
{16}3,3,6,6,2,2,5,5,1,1,4,4,8,8,3,3,
{16}7bx-3[8:1],,,,7b,,,,,1bx/5bx,,3b/7b,3b/7b,,,,
{16}46,,2/1-5[8:1],,45,,17,,8,8,,4/7h[16:3],,,6,7,
{16}4,5,3,6,1,8,3,4h[8:1],,A1,A2,A3,,7,7,5,
{16}6,,2,1,3h[8:1],,4,4,,17,,56,5,,8/2<6[8:1],,,,
{16}24,,5h[16:3],,,6bx,,4b/8b,,2b/6b,2b/6b,,3,4,
{16}3h[8:1],,7,,4/1h[8:1],,3,,5,5,,6/2h[16:3],,,3,2,
{16}5,4,6,3,8,1,6,5h[8:1],,A8,A7,A6,,2,2,4,
{16}3h[8:1],,7,5,6h[8:1],,8,7,1,6,1,8,2,1,3,8,
{16}4-8[8:1],,,,4,,,5bx,,2b/6b,,4b/8b,4b/8b,,37,,
{16}2-4[8:1],,15,,2/6-3[8:1],,7,,16,,8,,26,,7-3[8:1],,
{16}3^1[8:1],,1-5^7[4:1],,8,,8,,,2x,3,4,,7,7,5,
{16}6,,3,4,3,,2,8h[8:1],,4,,7,1h[8:1],,5-1[8:1],,
{16},,3/5bx,,4h[8:1],,,1bx/4bx,,5b/8b,,1b/4b,1b/4b,,,,
{16}7-5[8:1],,28,,7/3-6[8:1],,2,,3,,1,,37,,2-6[8:1],,
{16}6^8[8:1],,8-4^2[4:1],,1,,1,,,7x,6,5,1x,2,3,4,
{16}5x/7,,7,8,5x,,2,1,4x,,7,8,4x,,2,1,
{16}5xw1[8:1]b,,,,5b,,,,,3bx/7bx,,1b/5b,1b/5b,,,,
{8}3qq5[4:2],,8-6[4:1],,,,,,
{8}6v7-5^4[4:2],,8-3[4:1],,,,,,
{8}2qq7[8:5],,5^6-3[8:3],,,,,,
{8}3xV58[4:1]/7xV14[4:1],,,,,,3x/7x,,
{16}6/5h[4:1],,,,6-3-5[4:1],,,4,,2,,1h[16:5],,,,,
{16}4h[4:1],,,,3-6-4[4:1],,,5,,7,,8h[16:5],,,,,
{16}5h[8:1],,,,6-3[8:1],,,4,,2,,1,1^4[8:1]b,,,,
{16}1/5b^8[8:1]b,,,,2b/5,,,,3b/7b,,6,6,4x/5x,,,,
{16}5/3-5[8:1],,7/8v5[8:1],,36,,8,,3,3,,4/7h[16:3],,,6,7,
{16}1,8,4,5,2,3,1,8h[8:1],,A5,A4,A3,,2,2,1,
{16}2,,7,8,7,,56,56,,12,,34,34,,8/7<3[8:1],,
{16},,37,,2h[16:3],,,3bx,,1b/8b,,4b/6b,4b/6b,,7,5,
{16}7h[8:1],,2,,5/8h[8:1],,6,,4,4,,6/2h[16:3],,,3,2,
{16}8,1,5,4,7,6-2[8:1],8,5,,6x,,1,1,,,,
{16}2bx,5,3,7,5bx,6,2,4,8bx,6,4,7,3bx,5,1,7,
{16}5bw1[8:1]b,,,,5b,,,,,2bx/8bx,,3b/7b,3b/7b,,,,
{4}2h[8:1]/4bh[8:1],7h[8:1]/5bh[8:1],3h[8:1]/4bh[8:1],1v7[8:1]/7bv1[8:1],
{16}1bx^3-5[8:1]/7bx^5[8:1],,,,1bx/7bx,,,,,B2/B6,,1b/7b,1b/7b,
E

Re:MASTER


名前:
コメント:

タグ:

+ タグ編集
  • タグ:
最終更新:2026年05月10日 13:26