| アーティスト |
Nor「ブルーアーカイブ -Blue Archive-」 |
BASIC
ADVANCED
EXPERT
(170)
{1},
{2}3h[1:1],{4}E4,E5,
{2}E6,B3/B4,
{2}6h[1:1],{4}E6,E5,
{2}E4,B5/B6,
{2}2h[1:1],{4}E3,E4,
{2}E5,B3/B6,
{1}4bh[2:1]/5h[8:7],
{2},{8},4x/5x,,3,
{4}3h[4:1],4,{8}2,2,{4}1,
{4}78,78,{8}6,6,{4}5,
{4}6,57,8,17,
{4}2,13,{2}34,
{8}2x,2x,{4}2x,13,13,
{8}7x,7x,{4}7x,68,68,
{4}17,17,28,2>7[2:1]*q7[2:1]/8,
{1},
{4}28,28,{8}3,3,{4}4,
{4}56,56,{8}7,7,{4}8,
{4}78,78,56,56,
{4}34,34,{2}28,
{8}3,3,{4}3,24,24,
{8}6,6,{4}6,57,57,
{2}6-3[4:1],1>8[4:3],
{1},
{4}3,3,2h[1:1]/4,4,
{4}3,3,{2}4,
{4}6,6,5/7h[1:1],5,
{4}6,6,{2}5,
{4}3,3,2/4h[1:1],2,
{4}3,3,{2}5,
{4}6,6,5h[4:3]/7,7,
{4}6,6,{2}47,
{2}E6/E7,E4h[8:3]/E5h[8:3],
{8},,,C,{2},
{2}E3/E4,E5h[8:3]/E6h[8:3],
{8},,,C,{2},
{2}E1/E8,E5h[8:3]/E6h[8:3],
{8},,,E3,{2},
{2}B3h[8:7]/B6h[8:7],Cfh[8:3],
{2},{4}1x/8x,1x/8x,
{2}2h[2:3],4qq5[4:3],
{1},
{2}7h[2:3],5pp4[4:3],
{1},
{1}B2h[2:1]/B3h[2:1]/B4h[2:1],
{1}B5h[2:1]/B6h[2:1]/B7h[2:1],
{1}4qq1[4:5]/8qq5[4:5],
{1},
{4}24,24,{16}3h[16:3],,,4h[16:3],,,{8}2,
{4}2,18,{16}7h[16:3],,,5h[16:3],,,{8}6,
{2}6-1[4:1],2-6[4:1],
{4}8,8,{2}17,
{4}28,28,{16}1h[16:3],,,8h[16:3],,,{8}2,
{4}2,34,{16}5h[16:3],,,4h[16:3],,,{8}6,
{2}6^1[4:1],2^5[4:1],
{4}6,57,{2}48,
{4}1bh[8:1]/2bh[8:1],1h[8:1]/2h[8:1],7h[8:1]/8h[8:1],7h[8:1]/8h[8:1],
{4}5h[8:1]/6h[8:1],7h[8:1]/8h[8:1],1h[8:1]/2h[8:1],3h[8:1]/4h[8:1],
{4}6h[8:1],5h[8:1]/7h[8:1],3h[8:1],2h[8:1]/4h[8:1],
{8}8,8,{4}17,{2}2b/6b,
{8}7,7,7,7,{4}7,68,
{8}2,2,2,2,{4}2,13,
{2}4^1[4:1],7^4[4:1],
{4}8,8,{2}26,
{2}7bx-4[8:1]/8bx-4[8:1],1-5[8:1]/2-5[8:1],
{2}7-4[8:1]/8-4[8:1],{4}12,12,
{8}3,3,{4}4,{8}6,6,{4}5,
{4}78,78,{2}15,
{8}2,2,2,2,{4}2,13,
{8}7,7,7,7,{4}7,68,
{2}1-3[8:1]/5-7[8:1],4x-2[8:1]/8x-6[8:1],
{4}1x/5x,1x/5x,{2}26,
{8}7,7,{4}8,6h[4:1],5,
{4}56,45,3h[4:1],4,
{8}2,2,{4}1,3h[4:1],4,
{4}34,45,6h[4:1],5,
{4}57,57,46,35,
{4}24,24,35,46,
{1}5>1[2:1]/7h[4:3],
{4}78,78,{2}15,
{4}2b/4b,24,{8}8,8,{4}18,
{8}6,6,5,7,,48,{4}48,
{8}2,2,8,8,1,1,7,7h[4:1],
{8},5,5,6,,45,{4}45,
{2}3-8[8:1]/4,5/6-1[8:1],
{1}3>6[2:1]/4p5[2:1],
{2}E4,{8}E5,,,E6,
E
MASTER
(170)
{2},{8},6,5,4,
{4}3,2pp5[2:1]/4,5,{8}6,6,
{8},7,7,5,,46,{4}46,
{8}5,6,4,3,3,4,5,6pp1[2:1],
{8},5,,3,,4,{4}4,
{4}3,5,{8}6,5,4,3h[4:1],
{8},4,5,6,,35,{4}3^4p5-8[8:9]/5q4-1[8:9],
{1},
{2},{8},1x/8x,,18,
{8}2-5[8:1],2,6,7,8-4[8:1],8,{4}5h[4:1],
{8}3,2,1,8,{4}3h[8:1]/7h[8:1],2h[8:1]/6h[8:1],
{8}7-4[8:1],7,3,2,1-5[8:1],1,{4}4h[4:1],
{8}6,5,4,3,{4}2h[8:1]/6h[8:1],3h[8:1]/7h[8:1],
{8}46,6,5/6-1p4[8:3],6,{2}6h[4:1],
{8}3,3,3-8q5[8:3]/4,3,{2}3h[4:1],
{8}6,6,5/6-1v2-5[8:5],6,{2}6h[4:1],
{4},7,{8}8-4[8:1],3,{4}2h[4:1]/8b,
{8}6-1[8:1],6,2,3,4-8[8:1],4,{4}1h[4:1],
{8}7,6,5,4,{4}3h[8:1]/7h[8:1],2h[8:1]/6h[8:1],
{8}3-8[8:1],3,7,6,5-1[8:1],5,{4}8h[4:1],
{8}2,1,8,7,{4}2h[8:1]/6h[8:1],3h[8:1]/7h[8:1],
{8}28,2,1/2-5p8[8:3],2,{2}2h[4:1],
{8}7,7,7-4q1[8:3]/8,7,{2}7h[4:1],
{8}2,2,1/2-5v6-1[8:5],2,{2}2h[4:1],
{4},3,{8}1,28,{4}2-6[4:1]/8,
{4}6-1[4:1],1-5[4:1],5^2[4:1],{8}7,7h[4:1],
{8},8,{4}8,{16}6,5,6,5,{4}7-3[4:1],
{4}3-8[4:1],8-4[4:1],4^7[4:1],{8}2,2h[4:1],
{8},1,1,38,,56,{4}5/6-1[4:1],
{4}1-4[4:1],4-8[4:1],8^5[4:1],{8}2,2h[4:1],
{8},3,{4}3,{16}2,4,2,4,{4}3-8[4:1],
{4}8-5[4:1],5-1[4:1],1^4[4:1],{8}7,7,
{4}8-5[8:1],4^7[8:1],{32}A3,D3,A2,D2,{8}A1,{4}2bx/6bx,
{2}3h[4:1]/5h[4:1],{4}5h[4:1]/7h[4:1],{8},B6,
{8},8,1,2/E5,2,1,8,7,
{2}4h[4:1]/6h[4:1],{4}2h[4:1]/4h[4:1],{8},3qq5[2:1],
{4},{8},E6,,7,7,5,
{4}6,78,12,{8}34,3^1[8:1]/4,
{8},6^4[8:1],{4},{8},2,2,4,
{8}3,4,5,6pp4[8:5],,4,,3,
{2},{4}4h[8:1],3h[8:1]/5h[8:1],
{4}2h[4:3]/E6,B5,B4,E4,
{4}1h[4:3]/E6,B5,B4,E4,
{4}8h[4:3]/E6,B5,B4,E4,
{4}7h[4:3]/E6,B5,B4,E4,
{4}8/E6,8/B5,8/B4,8/E4,
{4}1/E6,1/B5,1/B4,1qq3[4:3]/E4,
{1}E6h[2:1],
{16}2,4,2,4,3,5,3,5,4,6,4,6,{4}5b,
{4}6h[8:1]/7h[8:1],6h[8:1]/7h[8:1],{16}58,,,14,,,{8}23,
{4}2h[8:1]/3h[8:1],2h[8:1]/3h[8:1],{16}14,,,58,,,{8}67,
{4}6h[8:1]/7h[8:1],1h[8:1]/8h[8:1],23,{8}14,1qq2[8:3]/4pp3[8:3],
{2},{4},23,
{8}1-5[8:1],1,7-2[8:1],7,{4}4-1[8:1],7,
{8}8-4[8:1],8,2-7[8:1],2,{4}5-8[8:1],2,
{8}1,1,7,7,5,5,3,3,
{16}5x,6,7,8,1,2,3,4,{4}5x,8b-2[8:1]*-6[8:1],
{4}8-4[8:1],8w4[8:1],8,{8}2x/6x,2x/6x,
{8}1-3[8:1],1-7[8:1],{4}1-5[8:1],,4/6-3-5[4:1],
{2}2-7-1[4:1],{8}5,5,1,1,
{8}6^1[16:3],8^3[16:3],2^5[16:3],4,{4}6,1x,
{8}35,3,3^8q5[8:3]/4,3,{2}3h[4:1],
{8}7,7,7^4q1[8:3]/8,7,{2}7h[4:1],
{8}3,3,3-8[8:1]/4,3,{4}3h[4:1],{8}1,1,
{8},57,57,4,{16}3,5,3,5,{4}4b-2[8:1]*-6[8:1],
{4}4-8[8:1],4w8[8:1],4,{8}2x/6x,2x/6x,
{8}5-7[8:1],5-3[8:1],{4}5-1[8:1],,2v7-1[4:1]/8,
{2}6v3-5[4:1],{8}1,1,5,5,
{8}2^5[16:3],4^7[16:3],6^1[16:3],8,{4}2,6x,
{8}17,7,7^4q1[8:3]/8,7,{2}7h[4:1],
{8}3,3,3^8q5[8:3]/4,3,{2}3h[4:1],
{8}7,7,7-4[8:1]/8,7,{4}7h[4:1],{8}5,5<4[8:3],
{8},Cf,{4},8x-4[8:1],8b,
{8}3,2,24,2,{4}2h[4:1],E4,
{8}6,7,57,7,{4}7h[4:1],E6,
{8}3,2,24,2,{4}2h[4:1],E4,
{8}6,7,38,2,{4}1-3[8:1]/7-4[8:1],17,
{8}6,7,57,7,{4}7h[4:1],E6,
{8}3,2,24,2,{4}2h[4:1],E4,
{8}6,7,57,7,{4}7h[4:1],E6,
{8}4,35,{4}35,{8}46,7,8b^5[8:1],1,
{4}2-8[8:1]/8,2/4h[4:1],{8}6,5,4,3^6[8:1],
{8},7,8,1h[4:1],,5,4,3,
{8}24,5,6,7h[2:1],E7,E6,E5,E4h[4:3],
{8},E2,E1,E8,,6x,{4}6x^8[8:1],
{4}4h[8:1],1h[8:1]/3h[8:1],5h[8:1]/7h[8:1],8V64[4:1],
{4}4V28[4:1],8,4,3q5[2:1],
{2}5,{8}6,,,A4/A5/B2/B3/B4/B5/B6/B7/D4/D5/E2/E4/E5/E6/E8,
E
Re:MASTER
最終更新:2026年06月21日 19:55