BASIC
ADVANCED
EXPERT
MASTER
(150){1},
{8}34,4h[8:5]/3h[8:5],,,,,,,54,4h[8:5]/5h[8:5],,,,,,,56,6h[8:5]/5h[8:5],,,,,,,
{16}74,,,25,,,
{8}18,2-4[8:1]/7-5[8:1],,,,57,7h[8:5]/5h[8:5],,,,,,,54,4h[8:5]/5h[8:5],,,,,,,24,4h[8:5]/2h[8:5],,,,,,,
{16}24,,,75,,,18,,27,,E4,E5,
{8}E6,,7<4[8:1],,5,,
{16}3,,3,4,,4,
{8}2,24,3,4,5,64,7,56,,7p3[8:1],,8,,
{16}2,,2,4,,4,3,,
{8}34,2,18,7,68,
{16}68,,7,5,
{8}7,4-2[8:1]/8-6[8:1],,,,1-3[8:1]/5-7[8:1],15,,,48,3,21,8,71,6,25,,4/3-6[8:1],,7>4[8:2],,5h[8:3],,,6,75,
{16}6,5,6,,3,4,
{8}2,17,1b/7b,,
{16}5h[8:1]/6h[8:1],,,7h[8:1]/6h[8:1],,,78,,,,,,3h[8:1]/4h[8:1],,,2h[8:1]/3h[8:1],,,
{8}21,,8,12,3,78,6,
{16}3,,3,4,,4,2,,2,1,,1,3x,,,,6,,6,5,,5,7,,7,8,,8,6x,,,,B4,B6,B2,B8,B3,B5,B1,B7,E4,E6,E2,E8,C,,,,B1,B7,B3,B5,B2,B8,B4,B6,E2,E8,E4,E6,
{8}C,,1,1,28,28,37,73,26,62,A1/A8/D1/A4/A5/D5f,,,,,,3>8[8:1]/7<4[8:1],48,3/7V13[8:1],,4w8[8:1],,4,,6<1[8:1]/2>5[8:1],51,6/2V86[8:1],,5w1[8:1],,5,,82,82,73,
{16}2,1,,7,8,,65,,7,8,,2,1,,34,,2,4,,7,5,,
{8}4b/8b,,1q5[8:1]/3<5[8:1],2,3/1<6[8:1],,5-2[8:1]*-1[8:1],,5,,8p4[8:1]/6>4[8:1],7,6/8>3[8:1],,4-7[8:1]*-8[8:1],,4,,16,61,87,
{16}6,5,,3,4,,21,,3,4,,6<1[8:1],5,,
{8}6/5>2[8:1],,5v2[8:1]*v8[8:1],,5,,1-3[8:1]/7-3[8:1],8,7/1-5[8:1],,1/4w8[8:1],,4,,8-6[8:1]/2-6[8:1],1,2/8-4[8:1],,8/5w1[8:1],,5,,73,37,21,
{16}3,4,,6,5,,78,,6,5,,3,4,,1h[8:1]/2h[8:1],,,7h[8:1]/8h[8:1],,,26,,2b/6b,,,,
{8}1>4[8:1]/4<7[8:1],8,4v2-8[8:2],,7-4[8:1],,7,,5<8[8:1]/8>3[8:1],4,5/8v6-4[8:2],,3-8[8:1],,3,,16,61,
{16}7h[8:1]/8h[8:1],,,3h[8:1]/4h[8:1],,,12,,1h[8:1]/2h[8:1],,,5h[8:1]/6h[8:1],,,78,,
{8}1h[8:4]/Ch[8:4],,,,,,,,1b/5b,3b/7b,,,,,,,31,1h[8:5]/3h[8:5],,,,,,,67,6h[8:5]/7h[8:5],,,,,,,
{16}5x/7x,,,2x/4x,,,1x/8x,,
{8}1x/8x,,54,,4/3s7[8:4],3/4h[8:5],,,,,,,6/8z4[8:4],8/6h[8:5],,,,,,,4/6s2[8:4],6/4h[8:5],,,,,,,
{16}1x/3x,,,5x/7x,,,4x/5x,,
{8}4x/5x,,3b/7b,,6h[8:14],,,,,5,5,,7,7,,,,8,8,,2h[8:14],,E5,,,4,,,3,3,,,
{16},E5h[16:3],
{8},,,1-4[8:1]/4-7[8:1],,,,
{16}47,,3x/8x,3x/8x,,2,1,2,
{8}8<5[8:1],8,1>4[8:1],1,6,7,85,,4>1[8:1]/7<4[8:1],,74,,
{16}2,,2,4h[8:1],,3,4,2,8,1,7,5,6,3,4,,12,,12,,38,,,,7h[8:1]/5h[8:1],,,6h[8:1]/8h[8:1],,,17,,,,,,2h[8:1]/4h[8:1],,,1h[8:1]/3h[8:1],,,
{8}28,,1,1w5[8:1],,1,,
{16}7,,7,6,,6,5,,5,4,,4,3x,,,,2,,2,3,,3,4,,4,5,,5,6b,,,,A7,A8,E7,E1,B6,B1,B5,B2,E5,E3,A4,A3,C,,,,A2,A1,E3,E1,B3,B8,B4,B7,E5,E7,A5,A6,C,,,,7,8,7,8,6,1,6,1,8,3,8,3,
{8}2/1<6[8:1],,E2f/B2,,4>1[8:1],,E5f/B5,,6>7[8:8]b,,
{1}Cf,,3v5[8:6]/4h[8:26],,3p5[8:6],
{8},,
{32}5x-1[8:1],6x,7x,8x,1x,2x,3x,4x,
{8}5x,,3b/7b,,
{16}18,,7,5,6,,4<7[8:1]/3q8[8:1],,,,3x/4x,,,,7x/8x,,21,,2,4,3,,5>2[8:1]/6p1[8:1],,,,6x/5x,,,,1x/2x,,12,,3,4,,6,5,,78,,2,1,,7-4[8:1],8,,
{8}7/1-5[8:1],,1>4[8:1]*<6[8:1],,1,,37,,
{16}4b/5b,,6,57,,3,2/4-8[8:1],,,,41,,2,,,,1b/8b,,7,68,,2,3-1[8:1]/1-5[8:1],,,,13,,,,
{8}68,6h[8:2]/8h[8:2],,,,1h[8:1]/7h[8:1],,
{16}2,4,2,4,3,,54,,56,,7,5,
{8}4b/8b,,3-8[8:1]/7-3[8:1],,7/3<6[8:1],,3/8w4[8:1]b,,8b,,3-7[8:1]/7-4[8:1],48,3/7>2[8:1],,7/4w8[8:1]b,,4b,,26,26,
{16}51,,2,4,,6,4,,28,,7,5,,3qq8[16:5],5,,
{8}3/4<7[8:1],,4,,1x/6x,2,3-1[8:1]/8-4[8:1],,38,,2-5[8:1]/6-1[8:1],,26,,4>1[8:1]/8<5[8:1],,
{1}A4f/8x-2-7-3-6-4[8:10]b,,
{8}4/3>8[8:1],4,53,6,
{16}7,8,6,,15,,,,5/6<1[8:1],,5,,46,,3,,2,1,3,,48,,,,4p8[8:1],,5,,46,,7,,7p3[8:1],,8,,71,,2,,42,,3,5,1w5[8:1],,,,1,,,,3b/7b,,,,5>2[8:1]/6,,6,,57,,8,,1,1,2,,38,,,,3/4<7[8:1],,3,,42,,1,,8,8,7,,16,,,,56,,7,,81,,2,,43,,34,,65,,65,,78,,16,,21,,38,,46,,2/4-8[8:1],,47,,1b/4b,,
{1},
E
Re:MASTER
最終更新:2026年05月08日 18:32