アットウィキロゴ

STRAY

アーティスト umigame

BPM BASIC ADVANCED EXPERT MASTER Re:MASTER
130 3 6 10+ 13 -

EXPERT MASTER Re:MASTER
譜面制作者 Luxizhel サファ太 -

BASIC


ADVANCED


EXPERT

(130){4}3h[4:5],
E5,,E4,
,B4,,5,
6h[4:5],E5,,E6,
,B5,,3,
2h[4:5],4,,4,
,5,,4/6,
7h[4:7],5,,5,
,5h[2:1],{8},,,,6bx,
6,{4}5,7/5,4/5,
{8}3,3,{4}4,2/4,4/5,
{8}6,6,{4}5/7,{8}3,3,{4}2/4,
1>4[4:1]/5<8[4:1],,,3/1,
{8}2,2,{4}4,3/5,5/6,
{8}7,7,{4}5,4/6,4/3,
{8}3,3,{4}2/4,{8}5,5,{4}4/6,
{8}3xh[16:3]/7xh[16:3],,,2x/6x,{4}2x/6x,3/5,
2h[2:3],4,4,4,
3,3,3,4/3,
7h[2:3],5,5,5,
6,6,6,6/5,
3h[2:3],4,4,4,
2,2,2,1/8,
7h[4:1],5h[4:1],6h[4:1],7h[4:1],
{2}8x,{4}2/8,2/8,
7h[4:1],5,{16}6x/4x,,,6x/4x,,,{8}3x/7x<3[8:3],
,,,,{4}2,2/1,
{8}8x/3x,8x/3x,,7,1x/6x,6xqq8[8:7]/1xpp7[8:7],,,,,,,,,,,{1}6h[4:3]/1-7-5[2:1],
2h[4:3]/4-2-8[2:1],
{4}2>6[2:1],,,8,
{1}8<4[2:1],
{8}2,2,4,4,3,3,5,5,
4,4,6,5x/6x,,,{4}1/8,
{2}8b/7b-4[8:1],1/2-5[8:1],
{4}8/7,{8}1,1,{4}8,2/1,
{8}2,2,8,8,1,1,{4}7,
6h[4:1],5,4/5,3/4,
{2}4b/3b-8[8:1],5/6-1[8:1],
{4}3/4,{8}2,2,{4}1,7/8,
6/5,8/7,2/1,4/3p6[8:3]*<6[8:3],
{8},,,,,8x/7x,{4}7xh[16:3]/8xh[16:3],
{8},1x/2x,{4}1xh[16:3]/2xh[16:3],{8},2/4,{4}2h[16:3]/4h[16:3],
{8},4/5,{4}4h[16:3]/5h[16:3],{8},5/7,{4}7h[16:3]/5h[16:3],
{8},4/8,{4}4h[16:3]/8h[16:3],{8},5/6,{4}6/5,
{8}4-8[16:3]/3-8[16:3],,,,,8/7,{4}7h[16:3]/8h[16:3],
{8},5/6,{4}5h[16:3]/6h[16:3],{8},4/3,{4}3h[16:3]/4h[16:3],
{8},2/1,{4}2b/1b-7-4[16:5],{8},,,,2,
2,{4}1,{8}7,7,{4}8,
1/6,6<1[4:1]/1>4[4:1],{8},,,,3/8,
3/8,{4}3/8,1/2,8/7,
{8}1/6,1/6,{4}1/6,8/7,2/1,
{8}3,3,4,4,2,2,8,8,
1,1,7,7,{4}5,4b/6b,
7h[4:7],E7,,E6,
,C,,E4,
2h[4:7],E3,,E4,
,C,,E6,
7,7h[4:1],5,5h[4:1],
4,4h[4:1],2,2h[4:3],
E3,E4,E5,E6,
E7/Cf,,,1/8,
{2}7b-5[8:1]/8b-4[8:1],2-4[8:1]/1-5[8:1],
{4}8/7,{8}6,6,{4}5,4/3,
{8}2,2,4,3,6,6,5,7,
{4}4h[2:1],1,3,1/5,
{2}2-6[8:1]/8-6[8:1],7-3[8:1]/1-3[8:1],
{4}2/8,{8}3,3,{4}1,3/4,
{8}2,2,4,4,5,5,7,7,
,5/6,,4b/8b,,7x,{16}7xh[16:3],,,5x,
,,{8}2x,{16}2xh[16:3],,,4x,,,{8}7,{16}7h[16:3],,,8,
,,{8}2,{16}2h[16:3],,,1,,,{8}3,{16}3h[16:3],,,4,
,,{8}7,{16}7h[16:3],,,5,,,{8}4/6,{4}4/6,
5/7,{8}6,6,{4}5,5/6,
{2}5-1[8:1]/6-1[8:1],3-8[8:1]/4-8[8:1],
6-1[8:1]/5-1[8:1],{4}4/3,3/4,
{8}2/8,7,{4}5/6,{8}1/7,2,{4}3/4,
{1}4q5b[8:5]/3>5b[8:5],
E

MASTER

(130){8}4/5,
{1}5h[2:3]/4qq1qq6[2:3],
{2},,5/7-2>3-6>4[8:9],
C,
E1,{4}E2,E3h[2:1],
{2}E5h[4:1],{4}4,3h[4:3]/5<8-2[2:1],
,,,3,
{2}2h[4:1]/4h[4:1],3h[4:1]/4h[4:1],
4/6xh[2:1],5-1b[8:1],
{8}2b/8b,7,1/7,{16}6,8,,8,{8}6,1/7,6,
3/5,4/6,5/7,{16}6,5,,5,{8}6,4/7,8,
2/8,7,8/6,{16}1,7,,7,{8}1,2/8,3/7,
4/6,{16}7,5h[8:1],,6,4,4,5,3,{8}4,{4}2b/6b,
{8}1b/7b,2,2/8,{16}3,1,,1,{8}3,2/8,3,
4/6,3/5,2/4,{16}3,4,,4,{8}3,2/5,1,
1/7,2,3/1,{16}8,2,,2,{8}8,1/7,2/6,
3/5,{16}4/6,4/6,,1,8,2,7-3[8:1],3,6,4,{4}7b,
2/4,4/3,{16}3h[8:1]/5h[8:1],,,6h[8:1]/4h[8:1],,,{8}7/5>3[8:1],
,8-6[8:1],,2-8[8:1],,5,{4}5<8-4[2:1],
1h[4:3],,,4-8>3[2:1],
2,,,3/4,
4/2xh[4:1],3xh[4:1],{16}4,,,3,,,{8}2/5-1[8:1],
,3<5[8:1],,8,,7,{4}7-5q3[2:1],
4x,3,2xh[4:1],5,
{16}3,3,8,8,1,1,{8}6,7/8-4[8:1],1/6,,,{4}5h[8:1]/3h[8:1],
6h[8:1]/4h[8:1],{16}5/7>2[8:1],,,4,,,{8}3h[8:3],
,,{4}1p4[4:1],3,{8}2,2,
3v8[8:1],3h[4:1],,,7v4[8:1],7h[4:1],,,6b,
6,{16}5h[16:3],,,4h[16:3],,,{8}3,4,6,
{2}7/5>1[4:1],8<4q1[2:1],
3h[2:1],E2h[2:1],
{4}E3,C,E7,{8}8,8h[8:5],
,,,,,,{4}2/7,
{16}6,5,6,3,4,3,6,5,{24}7x,4x,7x,4x,,,2,5,2,5h[8:1],{48},,,,{16}3,
4,5,6,7,8,1,2x/5x,,,,,{4}4/3>5[4:1],
5b<3b[4:1],3,{8}5-1[8:1],6,7,6,
1x,3p5b[4:1]*>5b[4:1],{4}4/5,,2b/6b,
{8}8<5[8:1],1/7,,3,4x>1[8:1],3/5,{4}6,
{8}8x,1v4b[8:1]/7v4b[8:1],{4}2/6,{8},3x/5x,{4}6x/2<7[8:1],
4/2>5[8:1],2/1,{8}7,6>8q7[2:1],5,4b,
,5x,,1,E3,E5,E7,C,
8-6-2[4:1],8,2,4,3,3,3/1,8/4-1[8:1]*-7[8:1],
,4x,,2b/6b,,1xq6[8:1]*>5[8:1],{4}8,
{8},7>2[8:1]*p3[8:1],{4}6,{8},4v1[8:1]*<7[8:1],{4}3/5,
{8},2-5[8:1]*-7[8:1],{4}3/1,{8},4/8,3b/1b,{16}2,1,
{8}2,3/4,4/5,{16}6-8-2[4:1],5,{2}6-4[8:1],
{8}4x/2x,{16}3/5,3/5,,6,4,5,{8}3,3/5,2b/6b,{16}1,8,
{8}2/7,2q6[8:1]*<7[8:1],{4}3,{8},5v8[8:1]*>2[8:1],{4}4/6,
{8},7-2[8:1]*-4[8:1],{4}8/6,{8},1/5,{4}1b/5b,
{8}2h[8:1],4h[8:1],3,{16}5,4,{8}6h[8:1],5,{4}4/6,
{16}3,5,1,8,5w1[8:1],7,{8}3,,,,,2b/8b,
3/7,{16}6h[8:1]/4h[8:1],,,3h[8:1]/5h[8:1],,,{8}2/4,1,8,
1/7,2/6,{16}3h[8:1]/5h[8:1],,,6h[8:1]/5h[8:1],,,{8}4/7,3/8,3/8,
{16}2x,1,3,8,4x,7,5,6,E5,E6,B4,B6,B3,B7,E3,E8,
2x,8,2,8,1x,7,8,6,1x,2,3,4,7x,6,5,4,
{1}2-7-1-5[4:3],
7-2-8-4[4:3],
{2}2h[2:3],E4h[1:1],
{4}A3h[2:1],,,1>4[2:1],
B4,C,8,8<5[2:1],
B5,C,1,2h[4:1],
4h[4:1],6h[4:1],{8}4h[4:1],,,3h[8:5]/5h[8:5],
,,,,,2,{4}1/2>8[4:1],
8b<2b[4:1],2,{8}8-4[8:1],7,6,7,
4x,2-6[8:1],1,{16}8,8xh[16:5],,,{8}5,4x,{16}7,7,
{8}5x-1[8:1],4/6,3/5,{16}2,2,{8}1x-6[8:1],2/8,{4}1>4[8:1]/7<4[8:1],
1bx/7bx,{8}2/6,{16}1/7,1/7,,2/8,{8}2/8,{4}7x/3x-5[8:1],
6-1[8:1]/3-8[8:1],3/6-4[8:1],{8}6,8pp4[8:3],1,7bx,
,5h[4:1],,3,4/3,3/2,1/2,1/8,
7-4[8:1],4-7b[8:1],3,1,3-8[8:1],8-3b[8:1],7,5,
7h[8:1],5,3,1/5b,,1/5,2-8[8:1],{16}4,4,
{8}2b,5,6-2[8:1],{16}5,5,{8}6,4,3-8[8:1],{16}7,7,
{8}3,5,6-2[8:1],{16}1,1,{8}6,4,7-1[8:1],{16}5,5,
{8}7b,4,3-7[8:1],{16}4,4,{8}3,5,8/6,1/2,
2/4,{16}3,5,,7,5,6,{8}4,3/5,1b/7b,{16}8,8,
{8}2-6[8:1],1/3,2/8,{16}7,7,{8}5,4/6,3/5<7[8:1],{16}2,2,
{8}5,1,7x/8-6>3[4:1],{16}1,1,{8}8b,2,{4}1-5b[8:1],
{8}8bx/1bx,7,6,{16}6,4,,3,{8}5,{4}2h[8:1]/6h[8:1],
{16}3,3,1,5,5v8>2b[4:1],7,{8}3,{2}5bx/B4h[16:7]/B3h[8:3]/E4h[4:1],
E

Re:MASTER


名前:
コメント:

タグ:

+ タグ編集
  • タグ:
最終更新:2026年05月08日 18:31