アットウィキロゴ

クロノイデア

アーティスト iDEN LiLY feat.X-Fenriey

BPM BASIC ADVANCED EXPERT MASTER Re:MASTER
190 5 8 11+ 14 -

EXPERT MASTER Re:MASTER
譜面制作者 サファ太 Jack -

BASIC


ADVANCED


EXPERT


MASTER

(190)
{32}1b/8b,2b/7b,3b/6b,4bqq2qq8qq6qq4pp6pp8pp2pp4[32:197]/5b,{8},{4},{2},
{1},,,,,{4}5h[2:3],,,4h[1:1],{1},
{8}2b/6b,,17,1,17,,27,,37,3,37,,4-2[8:1]/7,,47,,
1/8b,,28,2,28,,38,,48,4,48,,5/8-6[8:1],,38,,
1b/5,5,15,,14,,13,3,13,,14,,15,5,15,,
2b/6,6,2-6[8:1]/6,,27,,58,8,{16}2,1,3,8,4^1[8:1],7,5,6,{4}7x-3[8:1],7b/8b,

{8}1h[4:1]/2,3,4,5/6h[4:1],4,3,1/2h[4:1],8,7,5h[4:1]/6,7,8,1/2-6[8:1],3,12,8,
57,4-1[8:1],6,5h[4:1],,,42,5-8[8:1],3,4h[4:1],,,{16}57,4,3,2,{8}1bx/5b,,
8h[4:1]/7,6,5,4/3h[4:1],5,6,8/7h[4:1],1,2,4h[4:1]/3,2,1,8/7-3[8:1],6,87,1,
24,1>6[4:1],6,18,,8,75,8<3[4:1],3,81,,1,{16}15,26,37,48,{4}5bp8[8:1]/1bp4[8:1],

,A2/B2/Cf/B6/A6,{2},{1},{8}2b/A4/B4f/E4,,,{2}7b/A5/B5f/E6,{1},{16}3,3,
{8}4b,,4,B3,5,,5/A2,,6,E1,6,,15,{16}2,4,3,,6,5,
{8}7,7,5,B6,4,,4/A7,,3,E1,3,,28,3v8-2[4:1]/7v4-6[4:1],{2}46,

{8}4b/8b,,57,4,2/6^1V75[2:1],,4,,4,,3,2,15,6,
3V52[4:1]/7,,6,8v5^7[8:3],,1,1,2^5[8:1],,8,8,7,56,4,37,8,
{16}12,,3,3,4,,5,5,4,,2,2,4,,6,6,5,,4,4,5,,7,7,5,,2,1,3,8,4,7,
56,,3,3,4,,5,5,4,,2,2,4,,6,6,5,,4,4,5,,7,7,5,6,4,5,3,4,2,1,

{8}3b-6[8:1]/8bx,,36,7v2[8:1],,47,3v6[8:1],,38,7^2[8:1],,72,4-7[8:1]*-8[8:1],,4,,
6b-3[8:1]/1b,,63,2v7[8:1],,52,6^3[8:1],,61,2q7[8:1],,27,1-6[8:1]*-5[8:1],,1,,
3b-8[8:1]/8b,,35,6-2[8:1],,26,8V24[8:1],,48,5V71[8:1],,35,2w6[8:1],,2,,
4b/8bV61[4:1],,2,4V25[4:1],,5,7-3-7[4:1],,3,1^4[8:1],,16,8^5[8:1],,2-6[8:1]b/8,,
{1}4h[8:23],,{2},{4},{8},{32}6x,7x,8x,1x,{8}2x/4x,2,45,5,34,3,4-8[8:1]b/6,6,

2b-5[8:1]`Cf,,2/6pp1[8:3],,46,,2,2^5[8:1],,2-8[8:1]/7-4[8:1],6,2b/7b,,3,4-1[8:1],5,
46,,7p5[8:3],8,17,,4,3p6[8:1],,3/5>7[4:1],,5,,{16}4,3,{8}2b/6b,,
5<3[4:1]b,,3,4,5>7[4:1]b,,7,6,5<3[4:1]b,,3,4,5-1[8:1],,5x/7-3[8:1]*-4[8:1],,
7b,,12,38,,2/4qq5[8:3],5,6,7,7,8,8,{16}75,4,3,2,{8}1b/5b,,

8-3[8:1],7-4[8:1],8,7,1,35,6,7^4[8:1]/8,,2-6[8:1]/7-1[8:1],,2b/7b,,5,47,3,
2-5[8:1]/5,1,6-3[8:1],7,1-5[8:1],8,6,{4}7-3[8:1],7/8-4[8:1],8/1-5[8:1],1/2<3[16:5]b,3bx,
{8},8h[16:3],{16},2,{4}3-8[8:1]/7-4[8:1],37,1q5[8:1]/2^4[8:1],12,8p4[8:1]/7^5[8:1],87,
{8}12,3,4,{16}6,5,6,,78,,6,,4,5,2,1,3,8,4,7,5,6,{12}4x,4,4,8x,8,8,

{1}2b/6b,{4}E4,,,36,{8}E5,27,{4},,,E6,,,1-5[8:1]/8-4[8:1],
1b/8b,3/6h[2:1],3,4,3h[2:1]/5,6,6,{12}4,4,5,
{2}5p8[4:1],4q1[4:1],8h[2:1],E5hf[2:1],

{8}6^1[4:1],,,2^5[4:1]/D8,,,7^2[4:1]/D4,,,3^6[4:1]/D1,,,7/D5,,18,,
3^8[4:1],,,7^4[4:1]/D2,,,2^7[4:1]/D6,,,6^3[4:1]/D1,,,{2}Ch[4:1],
{8}7/8-5[8:1],,1,1,8,,2/1-4[8:1],,8,8,1,,2,2,4,3,
2-4[8:1]/5,,7,7,5V31[4:1],6,7,,,78,16,,{16}2-6[8:1],4,3,4,{8}2,,

E8h[2:3],,,B7h[8:9],,,B6h[4:3],,{1},{8}B2h[2:3],,,B3h[8:9],,,E4h[4:3],,{1},
{8}E6h[2:3],,,E5h[8:9],,,E4h[4:3],,{1},E1h[1:4],{2}E5h[1:3],Ch[2:5],{1},,

,{2},1bp4[8:1]/8bq5[8:1],
{8}Cf,,1-5[8:1]/2-6[8:1],38,12,,78,6q3[8:1]/1,,6/4<2[4:1],,4,,{16}5,6,{8}7b/3b,,
1>7[4:1]b,,1x/7,8,1<3[4:1]b,,1x/3,2,1>7[4:1]b,,1x/7,8,1-5[8:1],,1x/3-7[8:1]*-8[8:1],,
3b,,56,7-4[8:1]/4,,78,1,2/5h[4:1],3-8[8:1],4,6-4[8:1],6,{16}7,8,1,2,{8}3b/7b,,

1-6[8:1],2-5[8:1],1,2,8,5x/6,3x/4,2^5[8:1]/1x,,7-3[8:1]/2-8[8:1],,7b/2b,,4,35,26,
7-4[8:1]/1,8,3-6[8:1]/7,2,8-4[8:1]/3,1,38,{4}2-6[8:1],2/1-5[8:1],1/8-4[8:1],{8}8-2[8:1]b/7-3[8:1]b,6,8b/7b,
,,5h[16:3],{16},1,{4}6-1[8:1]/2-5[8:1],62,1x-6[8:1]/8-6[8:1],1-3[8:1]/8x-3[8:1],1x-5[8:1]/8-4[8:1],1b/8b,
{8}27,3,4,{16}6,5,6,,78,,12,,3,4,2,5,1,6,8,7,1,8,{12}3x,3,5,7x,7,1,

{8}2bh[4:1]/8bh[4:1],,,37,{16}2-4[12:1],8,1,,26,,7-1[12:1],5,6,,47,,3,,3,4,{8}2-8[12:1]/5,7-4[8:1],2,7,
3b,{16}2,1,{8}2,57,8-4[8:1],12,8,{16}3,3,5,,6,6,5,,47,,2-5[8:1]*-6[8:1],6,4,8,{4}2b,
{16}17,,6-8[12:1],4,5,,62,,3-5[12:1],1,2,,83,7,{8}6,8-4[8:1],2^5[8:1],8-6[8:1],2-6[8:1],8>6[16:3]b,2,8,,
{16}8b,7,8,7,8,7,1b,7,2,7,3,7,4b,7,5,7,6,7,8b,7,1,7,2b-6[8:1]*z6[8:1]b,7,3,,A2f,Cf,{8}A6f,,

A8h[4:1],,,A1h[4:1],,,A2h[4:1],,,A3h[4:1],,,7-1[8:1],,5,,
A4h[4:1],,,A5h[4:1],,,A6h[4:1],,,A7h[4:1],,,2-8[8:1],,4,,
E6h[4:1],,1,A4h[4:1],,3,A6h[4:1],,1,E5h[4:1],,3,7^2[8:1],,5,,
E4h[4:1],,8,A5h[4:1],,6,A3h[4:1],,8,E5h[4:1],,6,2>7[4:1],,Ch[4:1],,
{1},,,,E

Re:MASTER


  • MASTER譜面を追加しました。修正等ありましたらよろしくお願いします。 -- けもがみ (2026-05-08 16:57:15)
名前:
コメント:

タグ:

+ タグ編集
  • タグ:
最終更新:2026年05月29日 19:14