アットウィキロゴ

うたかたよいかないで

アーティスト HIMEHINA

BPM BASIC ADVANCED EXPERT MASTER Re:MASTER
166 3 7 10 13 -

EXPERT MASTER Re:MASTER
譜面制作者 Luxizhel サファ太 -

BASIC


ADVANCED


EXPERT


MASTER

(166)
{8}2/4,2h[8:5]/4h[8:5],,,,,,
{8}6,5/7,5h[8:5]/7h[8:5],,,,,,
{8}4,3/5,2/4,1x,,2/8,2/8,
{4}3/7<4[4:1],4>1[4:1],1<6[4:1],6,4bx,5/3-8[8:1],5,
{8}7,8,{4}1/7,4/6-1[8:1],4,
{8}2,1,{4}2/8,B6/E7/E6/B5/E5,8b/1b,
{8}2,4,6,8/2h[8:5],,,,,1,7,
{4}5/1b,2/4,4/3,4/3,
{8}4/2,2,{4}2/4,3/4,3/4,
{8}2/4,2,{4}4/2v8[16:5],4,4,
{8}1/4,1,{4}4/2-7-1[2:1],4x,4x,4x,
{4}1/4,2/4,4/3p7p3[8:7],4,4,4,4,4,4/2<7[2:1],4,5,6,
{8}5/6,4/7,3/8-4[8:1],,2-5[8:1]*-7[8:1],,,,
{8}8b,7,6,5,6,5,4,3,2,1-5[8:1],8,7,,7,5,6,7-2[8:1],,4,3,3-6[8:1],,8,7,
{4}7h[4:1],5h[4:1],3<7[8:1],1,1-5[8:1],8,
{8}6,6,8/7-3[8:1],,2-6[8:1],,,,
{16}7,8,7,8,7-4[8:1]*-3[8:1],,,,
{8},,2x/5x,2x/5x,,3/4,
{4}4/3V14[16:5]*pp4[16:5],,,1b/7b,,
{8}4/6h[4:3],,,5,5h[4:1],,,,7h[4:1]/6h[4:1],,,8,8bx,,2x,,
{8}5/3h[4:3],,,4,4h[4:1],,,,1/2,1-5[4:1]/2-6[4:1],,,,,,4/7,4/7h[4:1],,8,1,
{4}2h[4:1],4,4/3h[4:1],
{8}1,8,{4}7h[4:1],5,4bx/6bx,
{8}3,2/4,,6,{4}7h[4:1]/5-1[8:1],,,,
{4}2b/6b-1[8:1],5-2[8:1]b,
{8}8,7,{4}6-2[8:1],3-8[8:1]b,4-7[8:1],
{8}2,3,{4}8b/4b,5<8[8:1]/6-1[8:1],6/5,4>1[8:1]/3-8[8:1],3/4,5/6,5/6h[4:1],
{8}5,4,{4}3/5,3>6[4:1],4,5q3[4:1],4,4>7[4:1],6,5<2[4:1],3,4,
{4}6/3V17[4:1],7V53[4:1],3V17[4:1],7,5,5w1[8:1],,,
{8}8/7-4[8:1],,2,2,{4}2/1<6[8:1],1-4[8:1],6x,5>2[8:1]*<8[8:1],5x,
{4}3x/7x,C/E5,1/2,C/E5,8/7,Ch[4:1]/E5h[4:1],,
{4}2b/7b,1x-3[8:1]/8x-4[8:1],8/1,5x-7[8:1]/4x-8[8:1],4/5,1/6,
{16}5/2h[16:3],,,4h[16:3],,,6,,
{8}6xV42V86[4:3]*>6[4:3]b,,,,,,,,,,4/6,4/6,7bx/3bxh[8:5],,,,,1,4b/8b,,
{8}5/7,6,6,5/7,,3/4,
{4}4/3h[1:1],B4/E5,E3,E2/B1,Ch[4:3],2,2,1,
{4}1h[4:3],E1,C,E5,5<1[4:3],3,3,3,
{4}2bhx[1:1],E2/D2,D3/E3,E4/D4,E5h[4:1]/D5h[4:1],Cf,
{8}1,1,{4}2/8,3/7p2[4:1],C,
{8}1,1,,2>8[8:5]/8<2[8:5],,A8f/A2,,,,,,,,
{8}2,2<8[8:1],,5,5h[4:1],,8,1/7,,1,2,1/3,4,5,6,5/7,8,
{8}3-1[8:1],3,4,5,6-8[8:1],6,5,,
{8}1bx/3bx,,3bx/4bx,3bx/4bxv7[8:1],,8>3[8:1]b,,6x,6,5,4,3h[4:1]/8h[4:1],,,2/7,,
{8}1b/7b,8,8,8,1/3,2,2,2,6/8,7,7,7,8b,3b/5b,6b/2bh[4:1],,
{16}8,7x,6x,5x,2,3x,4x,5x,7,6x,5x,4x,
{4}1-6[8:1],5h[1:2],,,7xp3[16:9],,,,3-6[4:1],,,,
{4}4h[4:5]/7p3[16:9]b,,,,3-6[4:1]b,,,,
{4}4/6,5/3h[4:1],1<6[8:1],2,8>3[8:1]b,7,1<6[8:1],2,
{8}1,1,2b/8b,,5/6,5/6,4/5,4/5,3/4,3/4,2/5,
{16}6,5,7,,3,4,2,,6,5,7,,1,,2bx/8bx,,,,,,,,
{4}3bx-1[8:1]b*-8[8:1]b,3bx,A7/B7/D7/E7/A6/D6/E6/B5/A5/B6f,,,,,,,
{16}3/6,,,,4,5,4,5,3,6,3,6,2,7,2,7,1,8,1,8,1bh[8:3],,,,,,7,7,8,,
{8}E7,E5,E3,{4}1xw5[8:1]b,1b,3/7,
{8}6<2[4:1],6,4,,3>7[4:1]b,3,5,,6V82[4:1],6,5,,3V17[4:1],3,4,,
{8}6-8[8:1],6,4q5<3[2:1],,1x,,7b,,,,
{4}3bx-7[8:1],3xpp3[16:5]*qq3[16:5],,,6bx-2[8:1],6xqq6[16:5]*pp6[16:5],,,
{4}8/2-8[8:1],2/5-7[8:1],5/4-8[8:1],6pp5[8:3]/4qq5[8:3]b,,,
{4}3bx-8[8:1]b/7bx-4[8:1]b,3/7,1b/5b,
{8}7/8,6,1/7,2,1/8,7,2/8,3,2/1,8,3/1,4,
{8}6>3[8:1],,8bx,1<6[8:1],,3bx,4w8[8:1],,4x,,6b/2h[2:1],,,,
{32}D3,A3,D4,A4,D5,A5,D6,A6,D7f/1x-5[8:1],,,,,,,,
{8}1bx/8b,,6<1[8:1],5,
{4}6,3-1[8:1]/4-8[8:1],3/4,6-8[8:1]/5-1[8:1],6/5,
{8}3/4,2,{4}1/7-4[8:1],8-3[8:1]b,5,7>2[4:1],2<7[4:1],4,5-1[8:1],
{8}5x/7-3[8:1]b,,7bx,,1<6[8:1],2,3,,4>1[8:1],5,6,,7<4[8:1],8,
{4}1,2-5V38[8:3],5x,7-4V61[8:3],1x,2,3-7[8:1],5w1[8:1]b,
{8}A5f/D5/D6,,,2/8,3/7>2[4:1],,2-6[4:1],3,
{4}4-1[8:1],4x,2x<7[4:1],
{8}7-3[4:1],6,{4}5-8[8:1],5x,B3f/E3/E4/B4/E5,
{8}8,8,B6f/E7/E6/B5/E5,,1,1,
{4}2-5[8:1]/4-8[8:1],2/4,4b/7b,7-5[8:1]b,8-4[8:1],1-3[8:1]b,,4/8,
{16}3/7,,,6,4,,3/5,,
{4}2-4[8:1]/4-8[8:1],2b/4bq5<3[4:3],,,,4-8[8:1]b,4bx/5bh[1:1],,,,1,1h[4:1],
{16}7,8,7,8,{48}A6f,D6,A5,D5,A4,D4,,,,,,,
{8}2bx,2bxh[2:1]/1xh[2:1],,,,,3/8,,7bx,7bxh[2:1]/8xh[2:1],,,,,
{8}1/6,,2bx/4x,2bx/4x,1,8,7bx/5x,7bx/5x,4/6-1[8:1],,2>7[4:1],,8,8,
{4}8bx,1/7,6-1[8:1],
{8}5,4,3-8[8:1],3,5,6,7-4[8:1],7,1,1,2-6[8:1],2,
{4}8,5b/7b,1b/8b,
{8}3/4,4/3>8[8:1],,3/E6h[8:5],,,,,,,7/8,5b/1b>4-1[8:19]*<5-8[8:19]b,
{4},,,,,,,,,,,
{24},,,,B1,C,B5,A5,
E

Re:MASTER


名前:
コメント:

タグ:

+ タグ編集
  • タグ:
最終更新:2026年05月16日 19:42