アットウィキロゴ

WWW

アーティスト HIMEHINA

BPM BASIC ADVANCED EXPERT MASTER Re:MASTER
146 2 6 10+ 13 -

EXPERT MASTER Re:MASTER
譜面制作者 おそろっちーぬ じゃこレモン -

BASIC


ADVANCED


EXPERT


MASTER

(146){1},
,{8}2bx/7bx,,3,3,,4,,5,,6,6h[8:3],,,,,7bx/8bx,7bx/8bx,,2,1bx/2bx,,8,,7,,6,,5,,34,34,,4bx/5bx,{16},6,{8}5,7h[8:3],,6,6,,45,{16},3,{8}4,2h[8:3],,3,3,4x,3x/5x,6,7,4x/8x,3,2,1x/5x,,{16}7,8,7,8,7,8,7,8,{32}7x,6x,5x,4x,3x,2x,1x,8x,7x,6x,5x,4x,3x,2x,1x,8x,{8}3x/7x,,,,1,8,27,,
3h[2:1]/6bh[2:1],,,,,4,4,3,2h[1:1]/4,,1,,3,3,4,4,3xh[8:7],,4,,2,2,1,2h[8:3],,1,1,,7,7,8,8,1b/8b,,2,2-4[8:1],1,1-5[8:1],,3,,2,3,3-1[8:1],4,4-8[8:1],,2,3b,,1,1,2,2-4[8:1],,1-7v6-4[2:1],,,,,,3h[4:1],,,
5x/7xh[8:11],,6,6,5,6,,8,,6,6,5h[8:5],,6,6,7,8xh[8:5],,7,7,7,7h[4:1],,6h[8:3],,5,5,,2,2,1,1,1b/8b,,7,7-5[8:1],8,8-4[8:1],,6,,7,6,6-8[8:1],5,5-1[8:1],,7,6b,,7,7-5[8:1],8,8-4[8:1],,1V75[4:1],,,,1V75[4:1],,,,,
4x/8xqq4[2:3],,,1,1,,B6/B7,,,3,3,,E2/E3,,,,1xpp5[2:3]/5x,,,8,8,,B2/B3,,,6,6,,E7/E8,,,,3xh[8:1]/4xh[8:1],,4h[8:1]/5h[8:1],,{16}5/6h[8:3],,,7,,,{8}5,5xh[8:1]/6xh[8:1],,4h[8:1]/5h[8:1],,{16}3h[8:3]/4,,,2,,,{8}4,5x/6x,7p3[4:1],7,,2q6[4:1],,7q3[4:1],7,,5,5w1[8:3],,,,,,{16}3x/7x,,3,4,3,,6,5,6,,3,4,2,,6,5,7,,4x/5x,,3,4x,,6,5x,,2,4x,,7,5x,,{4}8x-5[8:1]/B4fh[1:1],8-3[8:1],8<5[8:1],8>3[8:1],8,,{16}1>4[8:1],8,1,,{8}1b/7b,,
5xV37[4:1]/6x,,25,1,8,{16}6,5,{8},35,2/4v1[8:1],3,4v7[8:1]/6,5,24,,7x/8x,56,3/4V62[4:1],,47,8,1,{16}3,4,{8},5/6>3[8:1],,8-4[8:1],8,2-6[8:1],2,3,4,5b/7b,,4x-8[8:1]/5,3,24,,7/8x-4[8:1],1,28,,5x-1[8:1]/6,4,35,2,3,14,8,5xv2[8:1]/7x,,56,4v7[8:1],,34,,2b/8b,,34,56,78,12,{16}3,4,,6,{8}5,8-4[8:1]/7-3[8:1],,7b/8b,,12,{16}3,4,{8},46,5v8[8:1]/7,6,3/5v2[8:1],4,57,,1x/2x,34,5V37[4:1]/6,,25,1,8,{16}6,5,{8},3<6[8:1]/4,,1-5[8:1],1,7-3[8:1],7,6,4,,{12}2,2,2,1b/3b,,,7,7,7,6b/8b,,,3,4,4,2,3,3,{8}1>5[8:1],5<1b[8:1],E5,E1,,6,57,8,14,38,27,6xV48[4:1]/1xV37[4:1],,,,,{16}1,8,1,8,{8}2b/7b,,
4x/6x,2,46,2,34,1,34,1,35,7,35,7,56,8,56,8,1b/7b,2>5[8:1],1,8,,7<4[8:1],8,1,,2>5[8:1],1,8,,7<4[8:1],8,1,1-5b[8:1],,1/7-3[8:1],8,2-6[8:1],1,5-1[8:1],4,3-7[8:1],2,8-6v5-3b[8:3],1,4,3,2,1,8b-4[8:1],,2-6[8:1]/8,,1-5[8:1]/2,,1/3-7[8:1],,3b/6b,,5<8[8:1],5>2[8:1],{4}5-1[8:1],,7V51[8:1]/2V48[8:1],2b/7b,{1},,,,,
E

Re:MASTER


名前:
コメント:

タグ:

+ タグ編集
  • タグ:
最終更新:2026年05月17日 13:23