アットウィキロゴ

キスキツネ

アーティスト HIMEHINA

BPM BASIC ADVANCED EXPERT MASTER Re:MASTER
148 2 6 10 13+ -

EXPERT MASTER Re:MASTER
譜面制作者 サファ太 Luxizhel -

BASIC


ADVANCED


EXPERT

(148)
{2},{4},{32},Ch[32:31],{16},{8},
{1},
{4},E1,,C,
{4},E5,,4x/5x,
{4}3,34,6,56,
{4}4,35,{2}1h[2:1],

{4}7b,28,{8}2,2,{4}1,
{4}28,17,{8}7,7,{4}8x,
{4}56,34,34,25,
{4}16,1h[4:1]/6h[4:1],{8},7x/8x,{4}7x/8x,
{4}1b,25,{8}3,3,{4}4,
{4}38,4/7-3[4:1],{2},
{4}12,12,78,78,
{8}1,1,8,8,{4}2,2b/5b,

{2}3h[4:1]/4h[4:1],{8}2,2,{4}4,
{4}2h[4:1]/4h[4:1],{8},3x/5x,{4}3x/5x,2-6[4:1],
{4},7-3[4:1],,2^7[4:1],
{4},6,5bx/6bx,{8}7,7,
{2}5h[4:1]/7h[4:1],{8}7,7,{4}8,
{4}7h[4:1]/8h[4:1],{8},1x/8x,{4}1x/8x,12,
{4}3,34,2,12,
{1}8z4[2:1],

{4}2h[8:3],{8},4,{4}4,35,
{4}6h[8:3],{8},5,{4}5,8bx,
{4}7h[8:3],{8},5,{4}5,46,
{1}Ch[2:1],
{2}1h[2:1]/2h[2:1],{4},18,
{2}7h[2:1]/8h[2:1],{4},7qq4[8:5]/8pp3[8:5],
{1},
{2}2/4h[2:1],5h[2:1],
{1}7h[2:3],
{2}Ch[2:1],{4},1bx/8bx,

{4}12,78,34,56,
{4}3b/4b,25,47,25,
{4}7b/8b,25,47,25,
{4}7b/8b,26,{8}17,17,{4}1q5[4:1]*v6[4:1]/7,
{2},{8}7,7,{4}7/8p4[4:1]*v3[4:1],
{2},{8}2b,2,{4}1/2^5[4:1],
{4},6^1[4:1],,2h[4:3],
{2},{8}1,1,{4}3bx/8bx,

{2}2V46[4:1],{4}7,57,
{2}4/6V82[4:1],{4}3,13,
{8}2,2,{4}1,{8}7,7,{4}8,
{4}16,3h[4:1]/8h[4:1],{8},1x/2x,{4}1x/2x,
{2}3/8V63[8:3],{4}1,24,
{2}3V16[8:3],{4}5,4x/6x,
{4}7h[4:1],5h[4:1],3h[4:1],1h[4:3],
{2},Cf,

{2}7b-4[8:1]/8b-4[8:1],1-5[8:1]/2-5[8:1],
{4}78,68,68,34,
{4}5b/6b,13,13,56,
{4}3b/4b,17,{8}26,26,{4}26,
{8}8,8,2,2,{4}1,2h[4:1],
{4}4h[4:1],5h[4:1],7,18,
{4}7h[4:1],8,56,5/6<4[8:5],
{1}Cf,

{2}1bx-6[8:1]/2bx-5[8:1],7-4[8:1]/8-3[8:1],
{4}12,13,13,57,
{4}2b/4b,68,68,24,
{4}5b/7b,28,{8}37,37,{4}3bx/7bx,
{8}6,6,8,8,4,4,{4}1h[4:1],
{4}3,2xp6[4:1]*q6[4:1],{2},
{4}7h[4:1],5h[4:1],4h[4:1],2h[4:1],
{8}8,8,1,1,{4}7x,2bx/6bx,

{4}3h[4:3],4,2,4,
{4}6h[2:1],5,7,7b/8b,
{8}6,6,{4}57,{8}3,3,{4}24,
{4}12,2h[4:1]/8h[4:1],{8},1x/7x,{4}1x/7x,
{4}3h[4:3],4,1,4,
{4}56,7^4[4:1]/8,,1bx,
{8}2,2,5,4,{4}7h[4:1],8^3[4:1],
{2}7^4[4:1],3-7[8:1]b,
{2}8h[4:3],{4},{8},{16}1x/7x,1bx/7bx,
E

MASTER


(148)
{16},,,,,,,,,,,4xh[16:13],,,5bxh[16:10],,
{8},,,,,,E5,,
,6,5,4,3h[2:1],,4,,6h[4:1],,5h[4:1],,4h[4:1],,3,,
2/4,,2/4,,3,3,5,5,4,4,{16}6,5,6,,{4}3-8[8:1]/7-4[8:1],3/7,

{16}1bx/5bx,,2,2h[8:1],,4,,3/5,,6,6,5,7,,5/7,,
4h[16:1]/6h[16:1],,4h[16:1]/6h[16:1],,,5,5,,3,4,3,,1b/2b,,,,
2h[8:1],,4h[8:1],,3,4,3,,7h[8:1],,5h[8:1],,6,5,6,,
4/7,,3,,2/5,,3h[8:1]/4h[8:1],,,,1x/2x,,3bx/8bx,,,,
5bx/6bx,,7,7h[8:1],,5,,4/6,,3,3,4,2,,2/4,,
3h[16:1]/5h[16:1],,3h[16:1]/5h[16:1],,,4,4,6,6h[16:3],,,5,6,,5b/7b,,
8h[8:1],,5h[8:1],,7x,6x,5x,,3h[8:1],,4h[8:1],,3x,2x,1x,,
2h[8:1],,4,3,,5/6,,4/7,4/7,,1/8,,2b/6b,,,,

2>5[8:1],,,,6<1[8:1],,,,3<6[8:1],,2,,8pp8[6:1]b*qq8[6:1]b,8,,,
,,,,,,1x/7x,,1x/7x,,,,2,,2h[8:1],,
{8}4,4h[8:1],5,5h[8:1],7,,6/8,7,
5/6,4/5,3/4,2,1/3,,2/4<1[4:1],1,
{16}1<4[4:1],,,,4,,,,2,,2h[8:1],,4,3,,5x/6x,
,4bx/7bx,,,,,1x/2x,,3bx/8bx,,,,2-7[8:1],,2,,
{8}6-3[8:1],6,1-5[8:1],1,8,,6,6,
{16}7h[8:1]/8h[8:1],,,5h[8:1]/6h[8:1],,,3h[8:1]/4h[8:1],,,1h[8:1]/2h[8:1],,,7/8,,1/6,,

{4}1hb[8:1]/6bpp5[4:5],,B7/B8,,
E2,C,E4,1bx,
3qq4[4:5]/4h[8:1],,B2/B1,,
E8,E7,E6/B5,,
8h[32:3]/Ch[32:3],,2h[32:3]/E1h[32:3],,
7h[32:3]/E6h[32:3]/B5h[32:3],,1h[32:3]/E4h[32:3]/B3h[32:3],,
{8}
8,8h[8:3],,5,6x,,5/7,,
1,1h[8:3],,4,3x,,2/4,,
{16}3h[8:1],,4,3,,4/5,,5/6,,7,7,5,6q8[4:2],,,,
{8},,,,,,4bx>1[8:1]/8bxp4[8:1],,

4^7[8:1]/8q4[8:1],,4>1[8:1]/8p4[8:1],,4/8,,1x/5x,6,
7/8-4[8:1],,7-3[8:1]/8,6,7^4[8:1]/8-5[8:1],1,7/8,,
1bx-5[8:1]/2bx,,1/2-6[8:1],3,1-4[8:1]/2^5[8:1],8,1<6[8:1]/2-7[8:1],,
1b/2b,,5xh[4:1],,8,8,2b/7b,,
{24}1/8,,,1h[24:3]/2x,3x,4x,,,,8h[24:3]/7x,6x,5x,,,,{16}2,1,,3/4,,6,
5,,7,7h[8:1],,5,6,3,4-8[8:1],,2>5[8:1],,4,,2,,
{8}1qq7[8:1],,1pp3[8:1]/2,,1-5[8:1]/8,,1w5[8:1]/2,,
1,,3/8,,1-6[8:1]/7-4[8:1],2/6,1b/7b,,

{16}1/5,,2/4,2/4,,3,,4v1[8:1],,3,3,4,2b,,,,
1h[16:1]/2h[16:1],,3h[16:1]/8h[16:1],,,2,1,,3,4,3,,2b/5b,,,,
4/7,,4/7,,5h[16:1]/6h[16:1],,5h[16:1]/6h[16:1],,4/7,,4/7,,6,6,5h[8:1],,
8,,7,,5/6,,4-1[8:1],,,,4x,,5x,,,,
1/5,,2,2h[8:1],,4,,3v1[8:1],,4,4,3,5b,,,,
2h[16:1]/4h[16:1],,2h[16:1]/4h[16:1],,,3,3h[8:1],,4h[16:3],,,2,2,,1b/5b,,
6,,6,,5h[16:1]/7h[16:1],,5h[16:1]/7h[16:1],,6/8,,6/8,,7q2[2:1]*p4[2:1],7,7,,
{8},,,,,,1bx>4[8:1]/5bxq1[8:1],,

1<6[8:1]/5p1[8:1],,1>4[8:1]/5q1[8:1],,1/5,,3x/8x,2/7,
1>4[8:1]/6,,1-6[8:1],7-4[8:1],1V35[8:1],7,1,7,
3/8^5[8:1],,8-3[8:1],2-5[8:1],8V64[8:1],2,8,3,
1b/5b,,6/8,,1-5[8:1]/2-6[8:1],3/8,1/2,,
{16}4/7,,3,3,4,,5/6,,7/8,,2,1,,3,4,,
1/2,,6,5,,7,7,8,6-1[8:1],,2<4[4:1],,6,,2b,,
,,,,1/2,,3,,5/6,,7,,1b/8b,,,,
2,4,2h[8:1],,1,1h[8:1],,3,,2/4,,5/7,,1/8,,7x,

{32}
1x,2,3,4,5,6,7,8,1,2,3,4,5,6,7,8,1,2,3,4,5,6,7,8,1,2,3,4,5,6,7,8,
{8}
1q5[8:1]/5,,1/7q3[8:1],6,7^4[8:1]/8-5[8:1],1,7/8,,
3b/8bp4[8:1],,2xp6[8:1]/8x,3,2>5[8:1]/1-4[8:1],8,1<6[8:1]/2-7[8:1],,
1b/2b,,8h[4:1],,6,4/8,2b/6b,,
{24}1/8,,,8h[24:3]/7x,6x,5x,,,,1h[24:3]/2x,3x,4x,,,,{16}7,8,,5/6,,3,
4,,2,2h[8:1],,4,3,6,5-1[8:1],,7<4[8:1],,5,,7,,
8b,,,,1/7,,2/3,,5/6,,7/8<1[8:3],,1/2,,E3f/B3f/E4f,,
,,,,8x,,,,1-5[8:1]/7-4[8:1],,2/6,,1b/7b,,,,

{16}3x/6x,,2,2h[8:1],,4h[8:1],,3,,6,5,6,5,,4/7,,
6,6,5,7h[8:1],,1,8,,2,4,3,,1b/5b,,,,
7h[8:1],,8,,5h[16:1]/6h[16:1],,5h[16:1]/6h[16:1],,3h[8:1],,4,,2,2,1,,
7/8,,6,,1/8,,7,,1-5[8:1]/2-5[8:1],,3,,1b/2b,,,,
3x/4x,,2,2h[8:1],,1,,1/8,,7,8,7,8,,1/6,,
7h[16:1]/8h[16:1],,7h[16:1]/8h[16:1],,,6,5,,2h[16:3],,,4,3,,1b/5b,,
2h[8:1],,4h[8:1],,2x,3x,4x,,6h[8:1],,5h[8:1],,6x,7x,8x,,
1/3,,2,,1/8,,7v6-4[8:1],,7,,,,,,,,
2h[8:1],,4,2,,1/3,,2,,6/8,,7,,1/8,2/7,3b/6b,
E

Re:MASTER


名前:
コメント:

タグ:

+ タグ編集
  • タグ:
最終更新:2026年06月19日 20:45