アットウィキロゴ

Intergalactic Bound

アーティスト Yunosuke / CircusP

BPM BASIC ADVANCED EXPERT MASTER Re:MASTER
140 2 6 10 13 -

EXPERT MASTER Re:MASTER
譜面制作者 Luxizhel ロシェ@ペンギン -

BASIC


ADVANCED


EXPERT


MASTER

(140)
{16}4>8>4[2:3],,,,6,,,6,,,{8}6h[4:1],,,
{16}5,,,5,,,{8}5h[8:3],,,,,
{16}5<1<5[2:3],,,,3,,,3,,,{8}3h[4:1],,,
{16}4,,,4,,,{8}4h[8:3],,,,,
{16}4>8>4[2:3],,,,7,,,6,,,{8}5h[4:1],,,
{16}4,,,5,,,{8}6h[8:3],,,,,
{16}5<1<5[2:3],,,,2,,,3,,,{8}4h[4:1],,,
{16}5,,,4,,,{8}3h[8:3],,,,,
{8}4h[2:3],,,5,5-3[16:1],,,,
{16}2,,,2,,,{8}2,2,,3/4,,
{8}5h[2:3],,,4,4-6[8:1],,,,
{16}7,,,7,,,{8}7,7,,5/6,,
{8}3h[8:3],,,4,2h[4:1]/5-3[8:1],,,,
{16}2/4,,,2/4,,,{8}1/3,1>4[8:1]/3h[4:1],,,,
{8}6h[8:3],,,5,4-6[8:1]/7h[4:1],,,,
{4}5x/7x,4x/5x,2x/4x,1-4[8:1]*-6[8:1],
{4}1b,5h[8:1]/7h[8:1],3h[8:1]/5h[8:1],5/6>3<6[8:3],
{8}2q7[8:1],,,,8,1,8-5[8:1]*-3[8:1],,
{4}8,2h[8:1]/4h[8:1],4h[8:1]/6h[8:1],4/3<6>3[8:3],
{8}7p2[8:1],,,,1,8,1-4[8:1]*-6[8:1],,
{4}1,5h[8:1]/7h[8:1],3h[8:1]/5h[8:1],{8}5/6,5/6h[4:1],
{8},7,7/8,1/8,1/2-5[8:1]*-7[8:1],,2,,
{8}8bx,,5/8,5x>2[8:1]/8x<5[8:1],,5/8,,1x/4x,
{16},,2,4,3,5,4,6,5h[4:1],,,,1-6[16:1],,,,
{16}1x/2x,,,5/7,,,{8}3/5v2[8:1]b*v8[8:1]b,,5bx,,1>4[8:1],
{8},7/1<6[8:1],8,1/5,,8,8-3[16:1],7,
{16}7x/8x,,,2/4,,,{8}6/4v1[8:1]b*v7[8:1]b,,4bx,,8<5[8:1],
{8},2/8>3[8:1],1,4/8,,8,1/7,,
{4}4-6[8:1]b*-8[8:1]b,4bx,5-3[8:1]b*-1[8:1]b,5bx,
{8}4,1/3,2/8,1/7h[8:3],,8,1-6[16:1],2,
{16}1x/2x,,,5/7,,,{8}3/5v2[8:1]b*v8[8:1]b,,5bx,,7xh[4:1],
{8},8,5/6,3/4,,1/3,1/3bqq2>8[8:5],,
{8}4h[4:1],,,1,,6,6pp7<1[8:5],,
{8}5h[4:1],,,8,,3,3-8[8:1]*-7[8:1],,
{4}3bx,6-1[8:1]*-2[8:1],6bx,{8}3,4/2h[4:1],
{8},1,7/8,5/6,,6/8,8/6pp7<1[8:5],,
{8}5h[4:1],,,8,,3,3qq2>8[8:5],,
{8}4h[4:1],,,1,,6,6-1[8:1]*-2[8:1],,
{4}6bx,3-8[8:1]*-7[8:1],3bx,{8}6,5/7h[4:1],
{16},,8,7,1,6,2,5,3,,{8}2/4,3b/1h[1:1],,
{1},
{4}2/8<6v5[8:3],4>8[4:1],,4-8[8:1],
{8}1V35-2[8:3],,8h[4:1],,,B8,B6,,
{4}7/1>3v4[8:3],5<1[4:1],,5-1[8:1],
{4}8V64-7[8:3],1h[4:1],,B3/B4/E4,
{8}2/8<6v5[8:3],,4,3,2p6[8:1],,4-8[8:1],,
{8}1V35-2[8:3],,8h[4:1],,,B8,B6,,
{8}7/1>3v4[8:3],,5,6,7<1[2:1],,5h[2:1],,
{2},{16}8,7,6,5,4,3,2,1,
{8}8h[4:1],,5h[4:1],,3-7[8:1]b,2,1bw5[8:1],,
{16},,,,1b/7b,,,,3,4,3,,5/2q7[4:1],,,,
{8}7<3[8:1],,8qq5[4:1],,,3,1-4[8:1]*-6[8:1],,
{8}1,,1/7,2,3/5,4/6,5/7-2[8:1],,
{8}6-3[8:1],,1-4[8:1],,,2,1-5[8:1]/2-5[8:1],,
{4}1/2,6h[8:1]/8h[8:1],2h[8:1]/4h[8:1],{8}3/5,3V51[4:1]/5h[4:1],
{8},,6,7,2/8-6[8:1]*-4[8:1],,8,,
{16}1bx/7bx,,6,5,6,,{8}4x/2x-7[8:1],,6-3[8:1],,8x>6[8:3],
{8},8/7h[8:5],,,,,8>3[16:1],,
{16}6x/8x,,7,5,,2,4v1[8:1]b*v7[8:1]b,,,,{8}4bx,,8<5[8:1],
{8},2/8>3[8:1],1,4/8,,1,1<6[16:1],3,
{16}1x/3x,,2,4,,7,5v2[8:1]b*v8[8:1]b,,,,{8}5bx,,1>4[8:1],
{8},7/1<6[8:1],8,1/5,,1,2/8,,
{4}5-3[8:1]b*-1[8:1]b,5bx,4-6[8:1]b*-8[8:1]b,4bx,
{8}5,6/8,1/7,8/2h[8:3],,1,8>3[16:1],7,
{16}6x/8x,,7,5,,2,4v7[8:1]b*v1[8:1]b,,,,{8}4bx,,8x/2xh[4:1],
{8},1,3/4,5/6,,6/8,8b/6pp7<1[8:5],,
{8}5h[4:1],,,8,,3,3qq2>8[8:5],,
{8}4h[4:1],,,1,,6,6-1[8:1]*-2[8:1],,
{4}6bx,3-8[8:1]*-7[8:1],3bx,{8}6,5/7h[4:1],
{8},8,1/2,3/4,,1/3,1/3qq2>8[8:5],,
{8}4h[4:1],,,1,,6,6pp7<1[8:5],,
{8}5h[4:1],,,8,,3,3-8[8:1]*-7[8:1],,
{4}3bx,6-1[8:1]*-2[8:1],6bx,{8}3,4/2h[4:1],
{16},,1,2,8,3,7,4,6,,{8}5x/7x,8b/6x-4[8:1],,
{16}1h[8:13],,,,3,,,2,,,{8}8h[4:1],,,
{16}2,,,3,,,{8}4h[4:1],,,2/3-5[8:1],,
{16}8h[8:13],,,,6,,,7,,,{8}1h[4:1],,,
{16}7,,,6,,,{8}5h[4:1],,,6/7-4[8:1],,
{16}7h[8:7],,,,3,,,2,,,{8}1h[4:1],,,
{16}7/8,,,1/8,,,{8}1h[4:1]/2h[4:1],,,3/2-5[8:1],,
{16}2h[8:7],,,,6,,,7,,,{8}8h[4:1],,,
{16}1/2,,,1/8,,,{8}7h[4:1]/8h[4:1],,,E1/E7,,
E

Re:MASTER


名前:
コメント:

タグ:

+ タグ編集
  • タグ:
最終更新:2026年06月13日 22:02