BASIC
ADVANCED
EXPERT
MASTER
(180)
{1}4h[2:1]/5h[2:1],
{4}2,2,3/4,3/4,
{4}7,7,5/6,5/6,
{4}3,3,2x/4x,2x/4x,
{4}6x,6x,5x/7x,5x/7x,
{2}4>1[4:1],8<5[4:1],
{2}4>1[4:1],8<5[4:1],
{4}4,5/3qq6[8:5],,,
{4},,5x/7x,6-1[4:1],
{4},2-5[4:1],,6h[4:1],
{4}8h[4:1],1h[4:1],3,3-8[4:1],
{4},7-4[4:1],,3,
{4}2h[4:1]/5h[4:1],,3/6,4/7,
{8}4/7,,E7,,,B4/B5/E5,,B2/B3/E3,
{4},1,1q5[4:1],6,
{8}7h[4:1],,5x,5x,,4/5,,2h[4:1]/4h[4:1],
{8},,,1/5,1/5,,B3/B4/E4f,,
{4}5/6,5/6,7,7/8,
{4}7/8,6,5/7,5/7,
{4}6/8,6/8,5,6/7,
{4}6/7,8,8b-4[8:1],,
{4}3/5,3/5,2,1/2,
{4}1/2,3,4,2,
{4}1/3,1/3,4,2/3,
{4}1,2>5[4:1]/8<5[4:1],,,
{4}4h[2:1]/6h[2:1],,,4/6,
{4}3h[2:1]/5h[2:1],,,3/5,
{4}E3,E4,E5,E6,
{4}E7f,,,1b/8b,
{4}2h[8:1]/4h[8:1],2h[8:1]/4h[8:1],7h[8:1]/8h[8:1],2h[8:1]/4h[8:1],
{4}5h[8:1]/7h[8:1],5h[8:1]/7h[8:1],1h[8:1]/2h[8:1],5h[8:1]/7h[8:1],
{4}3h[8:1]/4h[8:1],5h[8:1]/6h[8:1],7xh[8:1]/8xh[8:1],1xh[8:1]/2xh[8:1],
{8}3,3,4,4,2-6[8:1],,,,
{4}5h[8:1]/7h[8:1],5h[8:1]/7h[8:1],1h[8:1]/2h[8:1],5h[8:1]/7h[8:1],
{4}2h[8:1]/4h[8:1],2h[8:1]/4h[8:1],7h[8:1]/8h[8:1],2h[8:1]/4h[8:1],
{4}5h[8:1]/6h[8:1],3h[8:1]/4h[8:1],1h[8:1]/2h[8:1],7h[8:1]/8h[8:1],
{4}5/6,6h[4:1],8h[4:1],1h[4:1],
{4}3,1-5[8:1]/2-4[8:1],1x/2x,6,
{4}7-5[8:1]/8-4[8:1],7x/8x,3,1/2>8[2:1],
{4}8bx,,,1-5[8:1]/2-4[8:1],
{4}1x/2x,7-5[8:1]/8-4[8:1],7x/8x,,
{2}3h[2:1],1h[2:1],
{2}8h[2:1],6h[2:1],
{4}5,7/8,3/4,1/2,
{4}5h[4:1]/6h[4:1],,4/7,4b/7b,
{4}8<4[4:1],4>8[4:1],8<4[4:1],4>8[4:1],
{4}8,4,2/6,2/6,
{4}1>5[4:1],5<1[4:1],1>5[4:1],5<1[4:1],
{4}1,5,3/7,3/7,
{4}8<4[4:1],4>8[4:1],8<4[4:1],4>8[4:1],
{4}8,4,2/6,2/6,
{4}E3,E4,E5,E6,
{4}E7,E8,E1,E2fh[4:5],
{1},
{2},8x,
{2}7h[2:1],5h[2:1],
{2}3h[2:1],1h[2:1],
{4}7,7h[4:1],5,5h[4:1],
{4}3,3h[4:1],1,,
{2}2xh[2:1],4xh[2:1],
{2}6h[2:1],8h[2:1],
{4}2,2h[4:1],4,4h[4:1],
{4}6,6h[4:1],8,,
{2}4>1[4:1],5<8[4:1],
{2}4>2[8:1],5<7[8:1],
{2}1bx>4[4:1],5<8[4:1],
{2}4>2[8:1],5,
{4}3/4,4/5,5/6,5/6,
{4}4/5,3/4,2/5,2/5,
{8}6x,6,5,7x,2,2x,4,3,
{2}5bh[#0.6666641],E5,
{4}4/6,4/6,3h[4:1],5,
{4}3/5,6h[4:1],4,4/6,
{4}3h[4:1],5,3/5,6h[4:1],
{4}4,4/6,3h[4:1]/7h[4:1],,
{4}2/4,2/4,6h[4:1],5,
{4}5/7,3h[4:1],4,2/4,
{4}6h[4:1],5,5/7,3h[4:1],
{4}4,2h[4:1]/4h[4:1],,3/5,
{2}6-8[8:1],3-1[8:1],
{2}5-8[8:1],4-1[8:1],
{4}5,5,4,4,
{1}3xh[4:3]/7xh[4:3],
{8}2xh[2:1]/6xh[2:1],,,,,,,3/7,
{8},2/6,6/2-6[8:1],,8-4[8:1],,3bx,,
{8}2h[4:1],,4,4h[4:1],,3,,5/6,
{8},7/8,7<4[4:1]b/8>3[4:1]b,,,,,,
{2}1b/6b,3h[4:1]/8h[4:1],
{8}7,6,5,4,3-1[8:1],,5b,,
{4}6h[8:1]/8h[8:1],6h[8:1]/8h[8:1],3h[8:1]/4h[8:1],6h[8:1]/8h[8:1],
{4}1h[8:1]/3h[8:1],1h[8:1]/3h[8:1],5h[8:1]/6h[8:1],1h[8:1]/3h[8:1],
{4}7h[8:1]/8h[8:1],1h[8:1]/2h[8:1],3h[8:1]/4h[8:1],5h[8:1]/6h[8:1],
{4}7/8,7h[4:1],5h[4:1],4h[4:1],
{4}2,1-5[8:1]/2-5[8:1],1x/2x,6,
{4}7-4[8:1]/8-4[8:1],7x/8x,3,2V84-6[2:1],
{4},,,7-4[8:1]/8-4[8:1],
{4}7x/8x,1-5[8:1]/2-5[8:1],1x/2x,,
{8}6h[8:3],,,8,8h[8:3],,,1,
{4}1h[2:1],,3x,3x,
{4}2/4,2/4,5/7,5/7,
{4}3/4,3/4,5/6,5/6,
{4}4,4>1[8:3],,,
{4}5,5<8[8:3],,,
{2}4h[2:1],5h[2:1],
{4}E5f,,2b/6b,2b/6b,
{4}1V35[4:1],5V71[4:1],1V35[4:1],5V71[4:1],
{4}1,5,3/7,3/7,
{4}8V64[4:1],4V28[4:1],8V64[4:1],4V28[4:1],
{4}8,4,2/6,2/6,
{4}1V35[4:1],5V71[4:1],1V35[4:1],5V71[4:1],
{4}1bxV35[4:1],5bxV71[4:1],1bx,5bx,
{1}E7h[8:7],
{4},1xV35[4:1]*V75[4:1],
E
Re:MASTER
(180)
{4}7h[8:1],5h[8:1],3h[8:1],1pp4[2:1],
{2},E8h[4:13],
{4}5,5,5,5,
{4}4,4,4,4,
{4}5,5,6,6,
{4}5,4,35,E3h[4:9],
{4}4,4,4,4,
{4}5,5,4,4,
{4}E6,E5,{8}7,7,,3/8-4[4:1],
{8},4-8[4:1],,2,{4}2,3>7[2:1]/7,
{4},6<2[2:1],,3>7[2:1],
{4},6,5hx[4:1],2>6[2:1],
{4},7<3[2:1],,2>6[2:1],
{4},7,8h[8:1],1h[8:1]/7h[8:1],
{4}5h[8:9],A6/D7/E7,{8},B4/B5/C,,A3/D3/E3,
{8},2,{4}2-5[8:1],6-1[8:1],4h[4:1],
{4}8,{16}B7,B6,{8}B5,,2x-4[8:1],,6-8[8:1],
{8},1,,1,{4}2^7[8:1],2b/8h[1:2],
{8}5,5,{4}6,{8}5,5,{4}6,
{8}5,5,{4}6,{8}5,5,{4}6,
{4}4h[8:1]/7h[8:1],1h[8:1]/6h[8:1],4h[8:1]/7h[8:1],1^3[8:1]/6^4[8:1],
{4}16,78,6^3[8:1],1h[1:2]/6b,
{8}4,4,{4}3,{8}4,4,{4}3,
{8}4,4,{4}3,{8}4,4,{4}3,
{4}2h[8:1]/5h[8:1],3h[8:1]/8h[8:1],2h[8:1]/5h[8:1],3pp1[8:3]/6,
{2}5h[2:1],{4}8x,1^4[1:1],
{2},{4},8^5[1:1],
{2},{4},3,
{2}3,{4}E6,B4/C,
{2}A1hf[8:1]/A3h[8:1]/E2h[8:1]/E3h[8:1],{4},5b^2[8:1]/7b,
{4}5^8[8:1],5-1[8:1],5-8[8:1],3-6[8:1]/5,
{4}3/7-2[8:1],4-1[8:1]/7,4/5-8-6[4:1],5v2[8:1],
{4}5v8[8:1],5qq2[2:1],7,8x,
{8}7x,7,1,1,{4}4,2b/4b-7[8:1],
{4}4-2[8:1],4-8[8:1],4-1[8:1],4/6-3[8:1],
{4}2-7[8:1]/6,2/5-8[8:1],4-1-3[4:1]/5,4-6[8:1],
{4}4^1[8:1],4-7[8:1],4-2[8:1],4/8-6[8:1],
{4}1^4[8:1]/8,1/5V31[4:1]*V71[4:1],{2},
{4}2b/8b,4/6-8[8:1],{8}2,2,1,3,
{8},7,7,8,,1-6[8:1]/6,{4}1/6<4[2:1],
{2}E5f,{4},3-1[8:1]/4-8[8:1],
{4}34,5-1[8:1]/6-8[8:1],56,34,
{4}2^5[8:1],{8}6,7,{4}8^5[8:1],4-1[8:1],
{1}2h[4:3]/4,
{8}57,6,24,3,57,6,2/4v5[4:1],3,
{2},{4}E4/E7,3b>7[4:1],
{4}5,{8}6<2[4:1],6,{4}4,{8}3>7[4:1],3,
{4}5,{8}6<2[4:1],6,{4}4,3>7[4:1],
{4}5,{8}6<2[4:1],6,{4}4,{8}3,3h[4:1],
{8},1h[4:1],,8h[4:1],,6,{4}6<2[4:1],
{4}4,{8}3>7[4:1],3,{4}5,{8}6<2[4:1],6,
{4}4,{8}3>7[4:1],3,{4}5,6,
{4}5h[8:1]/6h[8:1],4h[8:1]/5h[8:1],3h[8:1]/4h[8:1],4v5[4:1],
{2},{4}E4/E7,8h[8:5],
{8},5,,{16}6,6,{8}8,4,3,5,
{4}1-4[8:1]/6,5V36-2[2:1],{2},
{2}1h[4:1],2h[4:1]/4h[4:1],
{2}8h[4:1],5h[4:1]/7h[4:1],
{4}E3,E2/E4,E7,E6/E8,
{2}E3h[2:1],4x,
{2}8b^5[4:1],1b^4[4:1],
{8}7,7,5,6,{4}3h[4:1],1h[4:1],
{4}8h[4:1],6h[4:1],5h[4:1],6h[4:1],
{4}8h[4:1],1h[4:1],3h[4:1],4h[4:1],
{2}E4h[1:2],E6h[2:3],
{2}B4h[1:1],B5h[2:1],
{2},{4}1x/8x,1^4[4:1]/8^5[4:1],
{2},3x/6hx[4:9],
{8}A8,E8,{4}B7,{8}A1,E2,{4}B2,
{4}E6,E5,{2}E4h[4:1],
{4}5x,{8}4,5pp5[2:1]b*qq5[2:1]b,{2},
{2},B4,
{8}35,4,{4}35,{8}6,6h[4:1],5,4,
{8}5,46,,{24}6x,5x,4x,{4}3x,35,
{8}46,5,{4}46,{8}3,3h[4:1],4,5,
{8}4,5,{4}6^8[8:1],3-5[8:1]/6,3,
{4}6h[2:3],{8}5,4,{4}4,{8}5,4,
{4}4,{8}5,4,{4}3h[2:1],{8}4,5,
{4}6h[2:3],{8}5,4,{4}4,{8}5,4,
{4}3,4,{8}5,4,{4}3,
{4}35,{8}E7,E6,{4}2,E5,
{4}35,{8}E3,E4,{4}7,E5,
{4}46,{8}E7,E6,{4}2,E5,
{1}Ch[2:1],
{8}1b/8b,,,1,{16}7,6,5,4,3,2,{8}1,
{8},2-5[8:1]/6,{4}2/6-1[8:1],,3b/7b,
{4}5h[8:1]/8h[8:1],{8}5h[8:1]/8,7hx[8:1],4,3hx[8:1]/5hx[8:1],,2hx[8:1]/4hx[8:1],
{8},1x/5,{4}1x/5pp4>6[2:1],{2}2h[4:1],
{4}B1/B8/E1f,{8}2xv5[8:1],2x,6^1[8:1],6,4,4,
{8}8,5x/7x,4x,2x/3x,{4}1x-5[8:1],1b/8w4[8:1],
{4}8b,{8}2,2,8,8,{4}5h[8:1]/7h[8:1],
{4}1h[8:1]/3h[8:1],2h[8:1]/4h[8:1],6h[8:1]/8h[8:1],5h[8:1]/7h[8:1],
{8}3-6[8:1],3,7-2[8:1],7,4,4,8,8,
{4}2V46[4:1],6V82[4:1],2,6,
{4}4b/8b,3,{8}7,8,1,2-8[8:1],
{8},6-4[8:1],,2,,1-6[8:1]/6,{4}1/6<3[2:1],
{2}E5f,{4},3-8[8:1]/4-7[8:1],
{4}34,5-2[8:1]/6-1[8:1],56,34,
{8}1h[4:1]/2h[4:1],,,18,{4}18,7q1[4:3]/8h[4:11],
{1},
{4}E3,E6,E4,E5,
{1}E7h[2:1],
{8}6,5,4,3h[4:1],,5,{4}5,
{8}6,5,4,3h[4:1],,5,{4}5,
{8}D7,E6,E5,E4,{4}D3,{8}3/5v4[4:1],35,
{2},{4}E3/E6,3b>5[4:1]/E5f,
{4}5<3[4:1],3>5[4:1],5<3[4:1],3>5[4:1],
{4}5<3[4:1],3,5,4/6V82[4:1],
{4}2V46[4:1],6,2,{8}3,3h[4:1],
{8},1h[4:1],,8h[4:1],,6,{4}6<4[4:1],
{4}4>6[4:1],6<4[4:1],4>6[4:1],6<4[4:1],
{4}4>6[4:1],6,4,35,
{4}A6/A7/B6/D7/D8,A4/A5/B3/B4/B5/E5,A1/A2/A3/B1/D2/D3,{8}8,8^5[8:1],
{8},1,{4}1,{2}4V28[8:1]*V68[8:1],
E
最終更新:2026年06月14日 16:53