アットウィキロゴ

3rd Avenue

アーティスト Sound Souler

BPM BASIC ADVANCED EXPERT MASTER Re:MASTER
130 3 6 11 13+ -

EXPERT MASTER Re:MASTER
譜面制作者 サファ太 Luxizhel -

BASIC


ADVANCED


EXPERT

(130)
{4}4/5h[4:3],4,4,4,
{4}3h[4:3]/4,4,4,4,
{4}4/6h[4:3],4,4,4,
{4}46,46,45,34,
{4}3bxh[4:1]/4,4,24,24,
{4}1h[4:1]/4,4,48,48,
{4}4/7h[4:1],4,46,4/6<4[8:5]b,
{2},{4},1b/7b,

{4}28,{8}3,3,{4}13,48,
{4}5/7h[2:1],{8}6,6,{4}6,7-4[4:1]/8-3[4:1],
{2},{8}2,2,{4}1-5[4:1]/2-6[4:1],
{2},{8}7,7,{4}78,
{4}1b/6b,{8}3,3,{4}13,48,
{4}5h[2:1]/7,{8}3,3,{4}3,1-5[4:1]/2-6[4:1],
{2},{8}7,7,{4}7-3[4:1]/8-4[4:1],
{2},{8}25,25,{4}25,

{4}3h[4:1],2h[4:1],1h[4:1],8h[4:1],
{4}7h[4:1],6h[4:1],{8}5,5,{4}57,
{4}5h[4:1],6h[4:1],7h[4:1],8h[4:1],
{4}1h[4:1],2V46[8:3],{2}1x,
{8}7,7,5,5,6,6,4,4,
{8}5,5,3,3,4,4,2,2,
{8}1,8,7,6,5,4,3,2,
{2}1h[2:1]/7,8-4[8:1]b,

{4}3bx/5bx,2h[8:1]/4h[8:1],2h[8:1]/4h[8:1],4h[8:1]/6h[8:1],
{4}2h[8:1]/4h[8:1],4h[8:1]/7h[8:1],{8}36,25,{4}1b/4b,
{4}18,5h[8:1]/7h[8:1],5h[8:1]/7h[8:1],3h[8:1]/5h[8:1],
{4}6h[8:1]/7h[8:1],1q6[4:1]/2^5[4:1],{2},
{4}4b/7b,1h[8:1]/2h[8:1],1h[8:1]/2h[8:1],6h[8:1]/8h[8:1],
{4}1h[8:1]/8h[8:1],5h[8:1]/7h[8:1],{8}48,37,{4}2b/6b,
{4}18,3h[8:1]/4h[8:1],1h[8:1]/7h[8:1],5h[8:1]/6h[8:1],
{4}47,B6,E1,B3f,

{4}1b,2h[8:1]/4h[8:1],4h[8:1]/6h[8:1],1h[8:1]/3h[8:1],
{4}6h[8:1]/8h[8:1],2h[8:1]/4h[8:1],{8}15,15,{4}3b^6[8:1]/7b,
{4},7h[8:1]/8h[8:1],3h[8:1]/5h[8:1],5h[8:1]/7h[8:1],
{4}1h[8:1]/4h[8:1],6h[8:1]/8h[8:1],{2}1/5-1[8:1]b,
{4}2b/8b,1h[8:1]/3h[8:1],5h[8:1]/7h[8:1],2h[8:1]/4h[8:1],
{4}6h[8:1]/8h[8:1],2h[8:1]/8h[8:1],{8}37,37,{4}1b-5[8:1]b/5b,
{4},{8}6,6,5,7,1,8,
{16}2h[16:3],,,4h[16:3],,,5h[16:3],,,6,,,{4}1bx-5[8:1]b/8bx-4[8:1]b,

{1},
{1}A5h[8:3]/A6h[8:3]/E6h[8:3],
{1}A1h[8:3]/A8h[8:3]/E1h[8:3],
{1}A3h[8:3]/A4h[8:3]/E4h[8:3],
{2}1h[4:3]/2,{4},2,
{2}2/3h[4:3],{4},2,
{2}3h[4:3]/4,{4},4,
{2}5h[4:3],3h[4:1],

{8}5,5,,46,,46,,6,
{8}5,46,,6,,6,,6,
{8}5,46,,6,,6,,6,
{8}5,46,,6,,57,{4}5h[4:3]/7,
{2}6h[4:1],{4}6,3/4h[4:3],
{2}2h[4:1],{4}3,5h[4:3]/6,
{2}7h[4:1],{4}6,56,
{2}4h[4:1]/5h[4:1],{4}36,36,

{4}E6,E7,E8,E1,
{4}C/E2,E3,E4,E5,
{4}C/E6,E7,E8,E1,
{4}C/E2,E3,E4,B5/E5,
{8}3,3,2,2,1,1,8,8,
{8}7,7,6,6,5,5,4,4,
{16}4,5,4,5,4,5,4,5,4,5,4,5,4,5,4,5,
{2}3h[2:1],{8}5,26,{4}1b/7b-4[8:1],

{4}8-3[8:1],7-5[8:1],8-4[8:1],7-3[8:1],
{4}8-2[8:1],5,{8}46,46,{4}2b-5[8:1]/8b,
{4}1-6[8:1],2-4[8:1],1-5[8:1],2-6[8:1],
{4}1-7[8:1],4q5[8:3],,8bx,
{4}7-3[8:1],8-4[8:1],6-2[8:1],5-1[8:1],
{4}7-3[8:1],8,{8}15,26,{4}3b-8[8:1]b/7b-4[8:1]b,
{4},{8}1,1,5,5,{4}3h[4:3],
{2}B4h[2:1]/B5h[2:1]/E5h[2:1],{4},1b-7[8:1]b/7b,

{4}6-1[8:1],5-3[8:1],6-2[8:1],5-1[8:1],
{4}6-8[8:1],2,{8}12,12,{4}4b/7b^2[8:1],
{4}3-7[8:1],4-6[8:1],3-1[8:1],4-8[8:1],
{4}3-7[8:1],4q5[8:3],,1b^7[8:1]b,
{4}6-2[8:1],5-3[8:1],7-1[8:1],2-6[8:1],
{4}5-3[8:1],8,{8}17,17,{4}3-8[8:1]/5b,
{4}4-7[8:1],5-2[8:1],6-1[8:1],3-7[8:1],
{2}8h[4:3],{4},7bw3[8:1]b,
{1},
E

MASTER

(130)
{8}3h[16:3],,3,4,3h[16:3],,3,A4,
{8}3h[16:3],,3,4,3h[16:3],,3,D5,
{8}6h[16:3],,6,5,6h[16:3],,6,A5,
{8}6h[16:3],,6,5,6h[16:3],,6,D5,
{8}3h[16:3],,3,A4,{16}2,2,D5,,3,,A5,,
{8}6h[16:3],,6,A5,{16}7,7,D5,,6,,A4,,
{8}3h[16:3],,3,E4,{16}2,2,E5,,3,,E6,,
{16}4x/7x,,,2x/5x,,,4x/7x,,1,8,1,,3b/6bh[4:13],,,,
{8}3-5[8:1],2,,,3-5[8:1],A2,,,
{4}5,5,4,3,
{8}2>5[8:1],1,,,2>5[8:1],A1,,,
{4}5h[4:1],4h[4:1],3,5/2bh[4:15],
{8}6-4[8:1],7,,,6-4[8:1],A7,,,
{4}4,4,5,6,
{8}7<4[8:1],8,,,7<4[8:1],A8,,,
{4}3q5[4:1],,,1/6,
{4}B3h[2:3]/E3h[2:3]/E4h[2:3],E5,E6,E7,
{4}E8,E1,E2,C,
{4}B6h[2:3]/E6h[2:3]/E7h[2:3],E5,E4,E3,
{4}E2,E1,E8,E5,
{8}2/4,4,3/5,3,4/6,6,5/7,5,
{8}4/8,8,3/7,3,2/6,6,1/5,1/5,
{24}2,,2,4,,4,3,,3,5,,5,4,,4,6,,6,5,,,4/7,,,
{16}6,5,6,5,6-2[8:1]*-1[8:1],,{8}5/7,6b,,3/8,,
{8}6/2-5[8:1],,2/7-4[8:1],8,7/2-5[8:1],1,2/7-4[8:1],8,
{8}2/7,1,2h[8:1]/6h[8:1],,1/5,1/5,3b/7b,,
{8}6/2-5[8:1],,2/7-4[8:1],A8,7/2-5[8:1],A1,2/7-4[8:1],A8,
{8}2/7,A1,3h[8:1]/7h[8:1],,{16}1/5,1/5,,3/7,3b/7b,,,,
{8}8/1-5[8:1],,1/8-4[8:1],7,8/1-5[8:1],2,1/8-4[8:1],7,
{8}1/8,2,1h[8:1]/7h[8:1],,2x/4x,2x/4x,1b/5b,,
{8}8/1-5[8:1],,1/8-4[8:1],E7,8/1-5[8:1],E3,1/8,E7,
{4}2h[8:1]/8h[8:1],1h[8:1]/7h[8:1],3h[8:1]/5h[8:1],2b/6b,
{8}6/3-8[8:1],,3/6-1[8:1],5,6/3-8[8:1],4,3/6-1[8:1],5,
{8}3/6,4,3h[8:1]/5h[8:1],,4/7,4/7,2b/6b,,
{8}5/3-8[8:1],,3/6-1[8:1],A5,6/3-8[8:1],A4,3/6-1[8:1],A5,
{8}3/6,A4,3h[8:1]/5h[8:1],,{16}4/6,4/6,,3/7,3b/7b,,,,
{8}5/4-8[8:1],,4/5-1[8:1],6,5/4-8[8:1],3,4/5-1[8:1],6,
{8}4/5,3,4h[8:1]/6h[8:1],,3/7,3/7,4b/8b,,
{8}5/4-8[8:1],,4/5-1[8:1],E7,5/4-8[8:1],E3,4/5,E7,
{8}1x/7x,1/7,2/3,5/6,6/8,1/2,4b/8b,,
{8}3h[4:3],,,,,,,5h[8:3],
{8},,,4h[4:1],,,5h[8:1],,
{8}5h[2:1],,,,,6h[8:1],,6h[8:3],
{8},,,,7,6,5,4,
{8}3h[4:3],,,,,,,5h[8:3],
{8},,,4h[4:1],,,5h[8:1],,
{8}5h[2:1],,,,,4h[8:1],,3h[8:3],
{8},,,,3,4,5,6,
{8}7h[4:3],E6,,B5,,B4,,E4/6h[8:3],
{8},E6,,B5/7h[4:1],,B4,8h[8:1],E4,
{8}8h[2:1],E6,,B5,,B4/1h[8:1],,E4/1h[8:3],
{8},E6,,B5/8h[4:1],,B4,3/7,,
{8}2h[4:3],E4,,B4,,B5,,E6/3h[8:3],
{8},E4,,B4/2h[4:1],,B5,1h[8:1],E6,
{8}2qq7[2:1],E4,,B4,,B5,,E6,
{8}7pp2[2:1],E4,,B4,,B5,6x,,
{16}3/4,,,3,B5,,2,,B4,2,2,,B5,,3,,
{16}B4,,,2,B5,,3,,B4,2,2,,E5,,,,
{16}5/6,,,6,A4,,7,,A5,7,7,,A4,,6,,
{16}A5,,,7,A4,,6,,A5,7,7,,D5,,,,
{8}4/6,5,3/5,4,4/7,6,2/5,3,
{8}4/8,7,3/6,2,1/4,5,4/6,4/6,
{24}7,,7,5,,5,6,,6,4,,4,5,,5,3,,3,4,,,2/5,,,
{4}3xh[8:1]/4xh[8:1],2h[8:1]/5h[8:1],4h[8:1]/7h[8:1],1b/8b,
{8}7/2>5[8:1],,2/8-4[8:1],7,8/1-5[8:1],2,1/7<4[8:1],8,
{8}2/7,1,3h[8:1]/7h[8:1],,2/6,2/6,4b/8b,,
{8}7/2>5[8:1],,2/8-4[8:1],B6/E7,8/1-5[8:1],B2/E3,1/7<4[8:1],A8/E8,
{8}2/7,A1/E1,2h[8:1]/6h[8:1],,{16}3/7,3/7,,1/5,1b/5b,,,,
{8}4/3-7[8:1],,3/4-8[8:1],5,4/3-7[8:1],2,3/4-8[8:1],5,
{8}3/4,2,3h[8:1]/5h[8:1],,2/6,2/6,4b/8b,,
{8}4/3-7[8:1],,3/4-8[8:1],A5/A6/E6,4/3-7[8:1],A1/A2/E2,3/4,A5/A6/E6,
{8}2h[8:1]/4h[8:1],,1h[8:1]/8h[8:1],,5/7,4/6,2b/5b,,
{8}1q5[8:1],,1/7<4[8:1],8,7/2<7[8:1],3,2/5-8[8:1],4,
{8}3/5,2,1h[8:1]/5h[8:1],,2/4,2/4,3b/7b,,
{8}5/1q5[8:1],,1/7<4[8:1],B8/E1/E8,7/2<7[8:1],A3/D3/D4,2/5-8[8:1],B4/E4/E5,
{8}3/5,A2/D2/D3,4h[8:1]/6h[8:1],,{16}8,8h[8:1],,4,2b/6b,,,,
{8}3/7-4[8:1],,7/1-6[8:1],2,1/3-8[8:1],4,3/5-2[8:1],6,
{8}5/7,8,1h[8:1]/7h[8:1],,3/5,3/5,2b/6b,,
{8}3/7-4[8:1],,7/1-6[8:1],A2/B2,1/3-8[8:1],A4/B4,3/5,A6/B6,
{8}1/7<1[4:1],,1>7[4:1],8,7,8,8bw4[8:1]b,,
{32}B8,Cf,B3/B4/B5,,
E

Re:MASTER


名前:
コメント:

タグ:

+ タグ編集
  • タグ:
最終更新:2026年06月18日 21:41