アットウィキロゴ

TAKE CONTROL

アーティスト ryhki

BPM BASIC ADVANCED EXPERT MASTER Re:MASTER
162 4 6 11+ 13+ -

EXPERT MASTER Re:MASTER
譜面制作者 はっぴー Safazhel -

BASIC


ADVANCED


EXPERT


MASTER


(162){1},
{8}E3,E4,E6,E7,E1,C,E5h[4:3],,{1}E4h[2:1]/E6fh[2:1],
{8}3-5[8:1],,,6,6h[1:1],,,,,5,5,,7,,56,,6-4[8:1],,,3,3h[1:1],,,,,4,{4}4,2,34,5h[8:1]/6h[8:1],5h[8:1]/6h[8:1],5h[8:1]/7h[8:1],5h[8:1]/6h[8:1],5h[8:1]/8h[8:1],5h[8:1]/6h[8:1],{8}47,36,{4}2bx/5bx,4h[8:1]/3h[8:1],4h[8:1]/3h[8:1],4h[8:1]/2h[8:1],4h[8:1]/3h[8:1],4h[8:1]/1h[8:1],4h[8:1]/3h[8:1],{8}52,63,5bx/8bx,,
47,7,7,67,7,47,7,57,57,7,7,7<5[4:1]/8,,1,1,,52,2,2,23,2,25,2,24,2/4-7[8:1],,2-7[8:1],,8-5[8:1],,1,,24,2,35,5,46,4,5/8b,,57,7,46,4,35,5,4/1b,,{16}2,4,2,4,3,5,3,5,4,6,4,6,5,7,5,7,{8}6b,,,,18,{16}1,8,{4}2>5[8:1]/7,
1/2b<7[8:1],2b-6[8:1]/5,2b/6,7<4[8:1]/8b,1b-6[8:1]/7,1/5bx,{16}7b,8b,7b,8b,7b-3[8:1],,,,7bx/8,,1,1,{8}2>5[8:1]/8bx,,1b<6[8:1]/2,,1/4bx,,3h[8:1],4,6h[8:1],5,47,3,26,,7b/8,1/8b,1bx-7[8:1]/2,{16}3,3,{4}1b-3[8:1],1b<6[8:1]/6,1b/5,4b/7b,{16}5b/6,,5b/6,,6x-1[8:1],5x,7x,,4b/6,,,,2bh[8:1]/8bh[8:1],,,5bh[8:1]/7bh[8:1],,,3bh[8:1]/4bh[8:1],,,1b/6b,,,{8}78,6,1/2-6[8:1],3,8w4[8:1],,8b,,
7h[8:1],5,7h[8:1],5,6h[8:1],5,56,,3h[8:1],4,3h[8:1],4,2h[8:1],4,24,,1,1,7,7,{16}2,3,4,5,8,7,6,5,{4}D2f/A1/A2/E2/B1/B2,D6f/A5/A6/E6/B5/B6,{8}7,7,8-3[8:1]/1-3[8:1],,
{4}8b-6[8:1]/1bx-6[8:1],8bxq4[8:1]/1b>4[8:1],1b/8b,{8}8x-6[8:1]*-5[8:1],1x/7bx,8bx-3[8:1]*-2[8:1],,8b,,4bx/5,5/6bx,{16}7-1[8:1]/4-2[8:1],47,,,4b/7b,,,,1x/2bx,,3,4,{8}5-1[8:1]/2b-4[8:1],,2/5b,,3x/8x,,57,6,35,1,{4}8x-6[8:1]/2x-6[8:1],8b-4[8:1]/2-4[8:1],8-6[8:1]/2b-6[8:1],2/8b,8p4[8:1]/7<4[8:1],8b>3[8:1]/7bq3[8:1],7b/8b,{16}7x/8bx,,7x/8x,1x/6x,2xh[16:7]/5x,,,,E6/E7/B6f,,,E3/E4/B3f,,,8b,1b,{4}8b<5[8:1]*>3[8:1],8b,{1}7b-2v4b[2:1]/1b-6v4b[2:1],
2bx/6h[1:2],,5h[1:1],{4}4h[2:1],,2h[4:1],{8}4,3,
25,{16}3,4,3,,25,,3,4h[16:3],,,3,,34,,45,,6,5,6,,47,,6,5h[16:3],,,6,,56,,45,,3,4,3,,25,,3,4h[16:3],,,3,,34,,{24}E5,E6,E7,E8,E1,E2,3x,,3x,,3x,,{4}3xh[4:1],A4/B4,
{1}3bx>4[1:1]/5bx,4>5[1:1],5>6[1:1],{2}6q4[2:1],E5h[4:1],{4}3h[8:1]/5,3h[8:1]/5,4/6h[8:1],4/6h[8:1],2h[8:1]/4,2h[8:1]/4,{16}4x/6x,,,4x/6x,,,4,5,3,,24,,1,,28,,7h[16:3],,,5,6,,45,,45,,6,6,{8}5,7,8,1,27,,
6h[8:1],5,6h[8:1],5,7h[8:1],5,7h[8:1],5,8h[8:1],5,8h[8:1],5,{16}8,7,6,5,{8}24,,3h[8:1],4,3h[8:1],4,2h[8:1],4,2h[8:1],4,{16}3-5[8:1],,,4,3,,7,,6,5,{8}6,47,,6,6,56,6,6-4[8:1]/7,6,6h[8:1],,2,2,12,2,2-8[8:1]/3,2,2h[8:1],,{16}7,5,7,5,6,4,6,4,5,3,5,3,4,2,4,2,3,,3,,24,,1,1,{8}8-4[8:1],17,8bx,,
{1}1h[4:3]/E3/E4/B3f,{4}7h[4:3]/E5/E6/B5f,,,1x,2h[4:1],4h[4:1],5h[4:1],6,{16}7,7,5,5,8,,17,,{4}2h[8:1]/6h[8:1],3/7-3[8:1],
1-5[8:1]/A7f,8-4[8:1]/A1f,2-6[8:1]/A8f,1-5[8:1]/A2f,3-8[8:1]/A1f,4-7[8:1]/A3f,{8}1/A4f,2,3b/8b,,{16}7b,4b,6b,5b,{4}8b-3[8:1],{16}4/A8f,,,5b,5b>2[8:1],,6,6,{8}5,7,17,2,28,46,6>4[8:1]/4>2[8:1],,4-8[8:1]/6bx,,4x/E2/E3/B2f,,17,{16}6,6,8>3[8:1],7,,,8<5[8:1]/E6/B5f,,,,8/A2/B2f,,,1bh[8:1],,4x,4x,,1b,,{24}2x,4x,3x,{4}5xw1[8:1],D5/D6/A5f,{16}37,,26,,15,15,{8},24,3,46,5,3/7<4[8:1],,1h[4:13]/7b,,
{4}D4/E4,D6/E6,D8/E8,{16}D2/E2,,,A3/B3,,,D5/E5,,,A6/B6,,,D8/E8,,D2/E2,,{12}E3,E4,E5,E6,E7,E8,{16}E1,E2,D3,D4,D5,D6,D7,D8,D1,D2,D3,D4,{4}D5h[1:0]/E5h[1:0],,{8}27,18,1/8-4[8:1],,
4bx>1[8:1],,1bx-5[8:1],,5bx<8[8:1],,1bx,2bx,1bxh[8:1]/3bxh[8:1],,6h[8:1]/8h[8:1],,4/5-1b[8:1],,3b-8b[8:1]/5,2b,3b/7bxv4b[8:1],,5bx<8b[8:1]/7,,3bx-6b[8:1]/5,,1bp5b[8:1]/3,,1/5bV31b[8:1],,5bx,6b,{16}7,7,8,,1x/6x,,{32}2x,3x,4x,5x,{16}6bx-1b[8:1]/8,,7,7,{4}6bx-2b[8:1],6b>3b[8:1]/8,7>1[8:1]/6bq2[8:1],7p3[8:1]/6b>4[8:1],6/7b,25,{8}3/4b,4b/5,5bV71[8:1]*-1[8:1]/6,,D5/D6/A5f,,{16}3b/7b,,,1bx,8bxz4b[2:1],,2bx/6bx,,{4}B3h[4:3],,,5,
{16}26,,1,7,1w5b[8:1],,28,,D1/D2/A1f,,,,3b/7b,,6,5,7x,5,6,5,7x,5,6,5,8x,5,6,5,8x,,3,4,2x,4,3,4,2x,4,3,4,1x,4,3,4,1x,,6,5,8x,,1/7x,1x/7,,2x/6,2/6x,,3b,7b,1b,5b,A2/A6/B2/B6/Cf,,,,7/8b,7/8b,7/8b,,1/2b,1/2b,1/2b,,3x/8xV64[8:1],,2,2,8bx-3[8:1],,1,1,{8}8bx<6[8:1]*p4[8:1],,8b,,3b/5b,1b/7b,26,,3bh[8:1]/4bh[8:1],,1b/8b,5b/6b,3b-6[8:1]/4b,{16},4x,3bx,,7bxh[4:1],,5,,{24}5b,4bx,3bx,{16}2bx,,8x,,8bxw4b[8:1],1x/7x,2x/6x,,{4}8bx,A1/A2/A3/A5/A6/A7/B1/B2/B3/B4/B5/B6/B7/B8/Cf,,{1},,,,,
E

Re:MASTER


名前:
コメント:

タグ:

+ タグ編集
  • タグ:
最終更新:2026年06月22日 23:22