アットウィキロゴ

Paradoxical Empress

アーティスト polysha

BPM BASIC ADVANCED EXPERT MASTER Re:MASTER
185 4 7 11 13+ -

EXPERT MASTER Re:MASTER
譜面制作者 はっぴー サファ太 -

BASIC


ADVANCED


EXPERT


MASTER

(185)
{1},

{8}E4/E5h[1:1],,,B2h[8:5],{2},
{2},{4},B3/E4,
{8}6,5,{4}4h[8:5],,{8},{16}E5,E6,
{2}E7,{8}6,5,4,3,
{8}E6,E5,E4,E3h[8:9],{2},
{32}B4,E5,{16},{8},{4},{2},
{8}2,1,8,7h[2:1],{4},{8},5h[4:1],
{8},7,6,5,6,5,4,3,

{8}2<6[8:3]/4h[8:3],,,,,5,{4}5,
{8}5h[8:3]/7>3[8:3],,,,,4,{4}4,
{4}24,3^6[4:1],{8},8,{4}8,
{4}57,6^3[4:1],{8},1,{4}1,
{8}2,2,4,4,5,5,7,7,
{8}5,5,8,8,{24}E7,B6,B5,{8}E5,{4}1x,
{16}1h[8:1]/2h[8:1],,,1h[8:1]/8h[8:1],,,{8}7/8-2[8:1],,6-8[8:1],,5,
{2}5b>8[8:3],{8},B5/B6/E6f,{4},

{2}1x/7bx,{4}7/8h[4:1],1h[4:1],
{4}2-6V48[4:3],8,{2}7,
{2}6bxh[2:1],{4}5h[4:1],4h[4:1],
{4}3-8v5[2:1],4,5,6,
{16}6,5,6,5,6,5,6,5,7-3[8:1],5,7,5,{4},
{16}2-6[8:1],4,2,4,{4},{8}8,18,{4}2x>1[4:3]*p6^5p1[4:3]/7x,
{1},
{2}B3/B4/B6/B7/E4/E7,{4},8-4[8:1],

{4}1b/8b,3h[8:1],3h[8:1],3h[8:1]/4h[8:1],
{4}3h[8:1]/4h[8:1],2h[8:1]/3h[8:1],1h[8:1]/3h[8:1],1h[8:1]/3h[8:1],
{4}2bxh[8:1]/8p4[4:1],2h[8:1],2h[8:1],2h[8:1]/4h[8:1],
{4}2h[8:1]/3h[8:1],1bx^6[4:1]/4bx,{8}5,5,{4}5,
{8}5b/6b,7x,1,7x,8,7x,6,7x,
{8}56,7x,18,7x,46,7x,68,1,
{8}7b/8b,6x,45,6-8[8:1],{2}6-4[8:1],
{16}7bx,,7,5bx,,5,4bx,,4,2bx,,2,{8}8bx,17,

{4}2b/6b,{8}3,{16}3,4,{8}3,{16}3,4,{8}2,18,
{8}7,{16}6,5,{8}6,{16}6,5,{8}6,{16}3,4,{8}3,25,
{8}2b/5b,{16}3,4,{8}3,{16}3,4,{8}2,{16}2,1,{8}2-5[8:1],3,
{4}8bx-3[8:1],4bx-7[8:1],6bx-1[8:1],5bx,
{4}2b/8b,{8}3,{16}3,4,{8}3,{16}3,4,{8}2-5[8:1],1,
{4}2b/8,{8}6,{16}6,5,{8}6,{16}6,5,{8}7-4[8:1],8,
{4}1/7b,{8}23,23,18,18,{4}6-1[8:1]b/7-4[8:1]b,
{2}A6/A7/D7f,{16}28,37,{8}46,{4}2b/8b,

{4}7>3[4:1],3>7[4:1],5,{8}4,4,
{4}3-8[8:1]/5,{8}7,7-4[8:1],,78,,3,
{4}2<6[4:1]/4,6<2[4:1],4,{8}5,5,
{8}46,5/7-3[8:1],8,1^6[8:1]/7b,,1b/2,,3,
{4}2-5[8:1]/4-8[8:1],24,{8}67,6p8[4:1]/7,,8,
{8},6,{4}6h[4:1],{8}8,7,6-1[8:1],5,
{4}4,{8}2,2^5[8:1],,12,,6,
{16}7h[8:1],,,7h[8:1],,,6h[8:1]/8h[8:1],,,1h[8:1]/5h[8:1],,,{8}2bx/4<8q3[8:7]b,3,

{1}2bx,
{8}1b,{16}6,5,,3,4,,7,8,,2x/6x,{4}2xv5[8:1]b/6x-1[8:1]b,
{4}2b/6b,{8}4x/8,7,56,4,35,2,
{4}1V75[4:1]/2,{8}4,4,3,3,{4}24,
{8}1b-6[8:1]b,1,4-8[8:1],4,2-4[8:1],2,7-3[8:1],7,
{4}8b,{16}2,1,2,1,4,5,4,5,8,7,8,7,
{6}1h[12:1]/6bxh[12:1],2bxh[12:1]/7h[12:1],3h[12:1]/8bxh[12:1],{12}7,7,5,5,6,6,
{6}A7/A8/D8/E8f,A4/A5/D5/E5f,A1h[12:5]/A2h[12:5]/D2h[12:5],{4},{8},{16},{32}3x/8x,4x/7x,

{1}5x/6x,
{1}E5h[2:1],
{1}3/4h[1:3],
{1}E5h[2:1],
{32}E3,B3,{16},{8},{4},{2}B1/E2,
{2}8h[2:1],6h[2:1],
{1}5-1^8-4[4:3],
{1}5-1^8-4[4:3],

{4}2h[4:1],{8}4,3-5[8:1],,8,{4}7h[4:1],
{8}8,6h[4:1],,5,{4}4-8[8:1]b,5,
{4}7h[4:1],{8}8,1-3[8:1],,4,{4}4h[4:1],
{8}2,1h[4:1],,2,{4}3h[4:1],{8}1,{24}D4,A4,D5,
{8}7bx/A5,7,6,6,5,5,4,4,
{8}35,3,46,6,25,2,{16}8,1,8,1,
{16}7,8,7,8,6,8,7,8,{8}6xh[2:1],{24}E1,B8,B7,{8}E7,{24}E1,B1,B2,
{16}E3f,,,5x/6x,,,78,,,12,,,{4}3/4-8[8:1],
{1}2h[1:1]/4b,
{4}8h[8:3],{8},{16}5,6,7-4[8:1],8,1,2,{4}3x/7b,

{16}2,1,2,1,{8}3h[8:1],{16}7,8,7,8,{8}6h[8:1],{16}5,4,3,2,
{4}1-5[8:1]/6-1[8:1],1-4-7[4:1]/6,{16}4x,,,2,,,{8}1,
{16}7,8,7,8,{8}6h[8:1],{16}2,1,2,1,{8}3h[8:1],{16}4,5,6,7,
{4}3-8[8:1]/8-4[8:1],3/8-5-2[4:1],{16}5x,,,6,,,{8}8,
{16}28,7,6,5,{8}4h[8:1],{16}8,1,2,3,{8}4h[8:1],{16}1-5[8:1],8,7,6,
{4}1b/5,{8}46,{16}7,5,{8}7,{16}2,1,,7,{8}8,
{8}1b/6b,25,{16}3,4,,45,,6,5,7,4,8,3,1,
{16}2bxh[8:1],,,6bxh[8:1]/8h[8:1],,,1bxh[8:1]/2h[8:1],,,38,,47,{4}4bx/7bxw3[8:1],

{4},1b/5b,{16}6,5,{8}7h[8:1],{16}8,1,2,3,
{4}4-8[8:1]/7-4[8:1],4-1-6[4:1]/7,{16}1x,,,3,,,{8}4,
{16}6,5,6,5,{8}7h[8:1],{16}3,4,3,4,{8}2h[8:1],{16}1,8,7,6,
{4}1b^4[8:1]/5b^8[8:1],1b/5b,{16}1h[8:1]/5h[8:1],,,3h[8:1]/7h[8:1],,,{8}15,
{4}2b/4bh[4:3],{8}3,3,3,3,3,4,
{8}5b/6,56,78,78,1b,{16}1,8,{4}2b/7b,
{8}35,2,46,7,24,1,28,28,
{16}7,1,7,1,5,3,6,4,A7/E8,A3/E4,A5/E6,A1/E2,{4}Cf,

{8}2^5[8:1],1,8,7-2[8:1],7,4,3^8[8:1],4,
{8}5,6-2[8:1],6,8,{4}1-5[8:1]*-6[8:1],1b,
{8}7h[8:1],5h[8:1],6h[8:1],4h[8:1],5h[8:1],3h[8:1],4,2v5[8:1]/5,
{8},6-1[8:1],,4,4,{24}4x/8x,3x/7x,2x/6x,{4}1bx/5bx,
{8}1-5[8:1],1,8-4[8:1],8,7-3[8:1],7,6-2[8:1],6,
{8}5-1[8:1],5,4-8[8:1],4,3,3,2,2,
{16}2,1,2,1,3,8,4,7,5,6,3,4,2,5,1,6,
{48}1b,2,3,{16}4h[8:1],,{48}1b,2,3,{16}4h[8:1],,{48}7b,6,5,{16}4h[8:1],,{48}7b,6,5,{16}4h[8:1],,{32}D1,D2,D3,D4,D5,D6,D7,D8,

{2}D1fh[2:1]/E1,5bxh[4:13],
{16},,,,E1,,,,,,,,,C,,,
{8},,,E5,,,,,
{4}D5,,,{32}E6,B5,{16}B4,{8},
E

Re:MASTER


名前:
コメント:

タグ:

+ タグ編集
  • タグ:
最終更新:2026年06月20日 22:45