アットウィキロゴ

HyperdrivE

アーティスト KARUT

BPM BASIC ADVANCED EXPERT MASTER Re:MASTER
174 3 6 11 13+ -

EXPERT MASTER Re:MASTER
譜面制作者 サファ太 Jack -

BASIC


ADVANCED


EXPERT


MASTER

(174)
{2},{4},2-7[8:1]/6-3[8:1],

{2}2b/6b,{4},{8}34,3/4h[8:7],
{1},
{2}3h[4:3]/5,{4},{8}4,34,
{4},{8}E2,E3,E4,E5,{4}2xq4[2:1]/6x,
{2}5,{4},{8}56,5h[8:7]/6,
{1},
{2}4h[8:3]/6z2[2:1],{4},{8}1,1h[4:1],
{8},3,4,5,26,37,{4}4^1[8:1]/8^5[8:1],

{4}4b/8b,{8}4,4,{4}3h[4:1],{8}4,4,
{8},4,4,3,{4}2-8[8:1]/4,{8}4,4,
{4}5,{8}5,5,{4}6h[4:1],{8}5,5,
{8},5,5,6,{4}5/7-3[8:1],{8}5,5,
{4}1h[4:1],3h[4:1],5h[4:1],{8}7,7,
{16}8,6,8,6,1,7,1,7,2,8,2,8,{32}3,4,5,6,7,8,1,2,
{4}3bxh[4:1]/7bx,{8}1,48,5/7-3[8:1]b,6,{4}1h[4:3],
{4}A5/D6/E6f,A3/D4/E4f,A7/B7f/E8,4xz8[8:1]/5xs1[8:1],

{4}4b/5b,{8},12,{4}3h[4:1]/8,{8}4,2V48[4:1]/5,
{8},7,6,5,1^6[8:1],2,{4}3v8[8:1],
{4}5,{8}4,5,{4}2h[4:1]/6,{8}1,38,
{8},5/6x,5/7x,5/8x,1x/5,2x/5,{4}3bx>5[4:1]/5b,
{4}4,{8},78,{4}1V38[4:1]/6,{8}4,6,
{8},78,18,12,34,45,{4}56,
{8}2-6[8:1]/8,1,1,8^5[8:1],4,4,3,2,
{8}1/7-3[8:1],8,8,1^4[8:1],5,5,{4}6-1[8:1]*-2[8:1],

{4}6b,{8},78,{4}1/6h[4:1],{8}5,4/7V51[4:1],
{8},2,3,4,8^3[8:1],7,{4}6v1[8:1],
{4}4,{8}5,4,{4}3/7h[4:1],{8}8,16,
{8},3x/4,2x/4,1x/4,4/8x,4/7x,{4}4b/6bx<4[4:1],
{4}5,{8},12,{4}3/8V61[4:1],{8}5,3,
{8},12,18,78,56,45,{4}34,
{8}1/7-3[8:1],8,8,1^4[8:1],5,5,6,7,
{8}2-6[8:1]/8,1,1,8^5[8:1],4,4,{4}3,

{4}2b-5[8:1]/6b,5-2[8:1],2-6[8:1],6-2[8:1],
{4}2-7[8:1],7-2[8:1],2-6[8:1],6,
{8}57,5,6,6,45,3,{4}2/6-1[8:1],
{8}4,4,{4}2-4[8:1]*-6[8:1],2,8^5[8:1],
{4}5b^8[8:1],8^5[8:1],5^8[8:1],8<4[8:1],
{4}4<1[8:1],1<4[8:1],4<1[8:1],1,
{4}2h[4:1],{8}3,2/3h[4:1],,2,{4}23,
{8}14,14,{4}2-6[8:1]/3-8[8:1],2x/3x,5x-1[8:1]/7x,

{4}1b-5[8:1],5x-1[8:1],{8}1-5[8:1],7x,{4}5-1[8:1],
{4}1x-5[8:1],{8}5-1[8:1],7x,{4}1-5[8:1],5x,
{8}68,6,57,7,46,46,{4}3-1[8:1]/7-1[8:1],
{4}3-5[8:1]/7-5[8:1],37,28,1b^4[4:1]/7b,
{4}4^7[4:1],7^2[4:1],2^5[4:1],5^8[4:1],
{4}8^3[4:1],3^6[4:1],6,8,
{16}7,5,7,5,6,4,6,4,5,3,5,3,{32}D5,D4,D3,D2,D1,D8,D7,D6,
{4}2x-6[8:1]/E5f,7x-3[8:1]/A2f,1x/A7f,2bz6[8:1]b/4b-8[8:1]b,

{1}Cf,
{1},
{1},
{1},
{2}2h[1:1],{4},4,
{2}4h[1:1],{4},5,
{8}5h[8:3],,,7h[8:3],,,{4}6^3[4:1],
{2},{12}5,3,5,{4}4,

{4}26,{8}5,5,{4}6h[4:1],{8}5,5,
{8},5,5,6,{4}5/7-1[8:1],{8}5,5,
{4}4,{8}4,4,{4}3h[4:1],{8}4,4,
{8},4,4,3,{4}2-6[8:1]/4,{8}4,4,
{4}8,{8}7,5,{4}56,{8}35,3,
{8}4,2,3,4,{4}2/5-8[8:1],1,
{8}8xh[2:1],6,6,6,5-2[8:1],7-4[8:1],{4},
{8}1xh[2:1],3,3,3,4-7[8:1],2-5[8:1],{4},
{16}8x,7,6,5,3,4,3,4,2,5,2,5,{32}1,8,7,6,5,4,3,2,
{4}1x-5[8:1]/8x,1/6^1[8:1],4w8[8:1]/6,4b,

{4}2b/6b,{12}1,1,8,2,2,8,3,3,8,
{12}4,4,8,5,5,8,6^3[8:1],6,8,{4},
{8}1xh[8:1]/2xh[8:1],,38,1xh[8:1]/2xh[8:1],,47,1x/2x,18,
{8}7xh[8:1]/8xh[8:1],,16,7xh[8:1]/8xh[8:1],,25,7x/8x,12,
{4}3b/7b,{12}6,6,4,7,7,4,8,8,4,
{12}1,1,4,2,2,4,3-8[8:1],3,4,{4},
{8}7-3[8:1],8,8,1^4[8:1],5,5,6,7,
{8}2-6[8:1]/8,1,1,8^5[8:1],4,4,{4}3-7[8:1]*-8[8:1],

{4}3b,{8}6,5,{4}4/7v4-6^1[2:1],{8}2,2,
{8},3,{4}3h[4:1],{8}1,2,3,4,
{4}5h[8:1]/6h[8:1],{8}56,4,{4}3q5[8:3],{8}8,8,
{8},6,6,6,57,34,{4}1-4[8:1]/5v8[8:1],
{4}1b/5b,{8}7,6,{4}2v5-3^8[2:1]/5,{8}7,7,
{8},6,{4}6h[4:1],{8}8,7,6,5,
{4}3/4-8[8:1],{8}2,2>6[32:5],,7<3[32:5],,2V46[32:5],
{8},7V53[32:5],,2,{4}1w5[8:1],1b,

{4}3/7-1[8:1],{8}5/7x-4[8:1],4,{4}3h[4:1],{8}4x,2/6h[4:1],
{8},1,7x-3[8:1]/8x-3[8:1],6,{4}78,{8}4x,4x,
{4}2-8[8:1]/6,{8}2x-5[8:1]/4,5,{4}6h[4:1],{8}5x,3h[4:1]/7,
{8},8,1x-6[8:1]/2x-6[8:1],3,{4}12,{8}3/5x,3/5x,
{4}2b/6b,{8}3v8[8:1]/7-4[8:1],48,{4}37,{8}16,16,
{8},3/8-4[8:1],4V63[16:3],8,{4}2V47[16:3]*V48[16:3],2b,
{8},1,28,28,28,37,{16}8^5[8:1],5,8,5,
{8}8,3,24,24,24,78,{16}1^4[8:1],4,1,4,
{8}1,6,78,12,{32}3b,4,5,6,7,8,1,2,6b,5,4,3,2,1,8,7,
{4}B4/B5/E5f,A2/A4/E3f/E4,A5/A7/E6/E7f,1b-5[8:1]b/8b-4[8:1]b,
{1}Cf,
E

Re:MASTER


名前:
コメント:

タグ:

+ タグ編集
  • タグ:
最終更新:2026年06月20日 19:32