アットウィキロゴ

RONDØ

アーティスト Ashrount

BPM BASIC ADVANCED EXPERT MASTER Re:MASTER
314 6 8 12+ 14 -

EXPERT MASTER Re:MASTER
譜面制作者 サファ太 Luxizhel -

BASIC


ADVANCED


EXPERT

(314)
{1},,

{1}1bx^4[4:3],
{2},5,
{1}5^8[4:3],
{2},2,
{1}2^5[4:3],
{2},6,
{1}7^2[4:3],
{2},3,

{2}1bx,{8}7h[8:3],,,5h[8:3],
{8},,{4}6,{2}34,
{2}2bx,{8}7h[8:3],,,5h[8:3],
{8},,{4}6,{2}45,
{2}3bx,{4}12,12,
{4}8,7,78,78,
{1}6bh[1:2],
{1},

{2}E1f,{8}7h[4:1]/8h[4:1],,,7h[4:1]/8h[4:1],
{8},,1h[4:1]/6h[4:1],,,2h[4:1]/5h[4:1],,,
{8}3h[4:1]/4h[4:1],,,3h[4:1]/4h[4:1],,,{4}5,
{4}46,3x/7hx[1:2],{2},
{1}E5f,
{4},5b,{2}5bh[4:1]/6bh[4:1],

{4}47,47,25,25,
{4}3,{8}3,4,,4,{4}3,
{4}25,25,47,47,
{4}6,{8}6,5,,5,{4}6,
{4}47,47,25,25,
{4}3,{8}3,4,,4,{4}2,
{2}1h[4:1]/5h[4:1],3h[4:1]/7h[4:1],
{8}4b/6b,,,3b/5b,,,{4}1b/7b,

{4}2,2,16,16,
{4}7,{8}7,8,,8,{4}7,
{4}16,16,38,38,
{4}2,{8}2,1,,1,{4}3,
{8}8h[8:3],,,6h[8:3],,,5h[8:3],,
{8},3h[8:3],,,{4}4,4,
{8}3x/5x,,,5x/7x,,,2bhx[4:1]/5bhx[4:1],,
{8},1bx/6bx,,,{2}1bx/6bx,

{1}B3h[1:2]/B4h[1:2]/E3h[1:2]/E4h[1:2]/E5h[1:2],
{1},
{1},
{2},{4}2,4,

{4}6bx,7h[4:1],5,4,
{4}3,{8}3,5,,5,{4}4,
{4}46,4/6<2[2:1],{2},
{8}4b,,,3b/5b,,,{4}5b/6b,
{4}47,47,{8}6,5,{4}6,
{4}34,34,{2}2b/5b,
{2}2h[4:1]/4h[4:1],{8}3x,3x^8[8:5]b*-7[8:5],{4},
{1},

{4}7b/8b,78,56,34,
{4}1b/2b,12,34,56,
{8}7b,,7,5,,5,4,,
{8}4,2,,2,{4}8,37,
{1}3bh[2:3]/7bh[2:3],
{1},
{1}2h[1:1],
{1}Ch[4:3],

{1}1xq5^7[4:3]b,
{1}B8f,
{1}1-5V36[4:7],
{1}B7f,
{2}8h[2:1],7bhx[2:1],
{2}5h[2:1],4h[2:1],
{2}2h[2:1],1h[2:1],
{1}Ch[2:1],

{1}1>5[1:1]/8q6[1:1],
{1},
{1}7<2[8:7]/8h[2:3],
{1},

{2}1b/8b,{8}2,1,2,1,
{4}2,38,47,47,
{2}5h[4:1]/6h[4:1],{8}3,4,3,4,
{4}3,25,16,16,
{2}7h[4:1]/8h[4:1],{4}16,16,
{4}27,27,38,3-7^2-6[2:3]/8,
{1},
{1},

{1}A8/D8f/E8,
{1}A1,
{1}A2/A3/D3/E3,
{1}A4,
{1}A5/B5/D6/E5/E6,
{1}18,
{1}D7/E7,
{1}A7/A8/B7/B8/D8/E8,

{2}5bhx[2:1]/6bhx[2:1],{4},4,
{2}3bhx[2:1]/4bhx[2:1],{4},3,
{2}2bx/3bx,6bx/7bx,
{2}2h[4:1]/8h[4:1],1h[4:1]/7h[4:1],
{4}2,2,8,8,
{8}1,7,1,7,1,7,1,7,
{1}8bx-5[1:1]*z4[1:1],
{1},

{4}2b,2-5[4:1],8,8,
{4}7,7-3[4:1],1,1,
{4}2,2-8[4:1],5,5,
{4}6,6-4[4:1],1x,1x,
{4}2x/4x,2x/4x,5,6,
{4}57,57,4,35,
{4}2h[4:1],{8}4,4h[4:1],,3,,3b/5b,
{8},4b/6b,,5b/7bh[8:5],{2},

{4}3,3-5[4:1],6,6-1[4:1],
{4}3,3,28,28,
{4}7,7-4[4:1],3,3-8[4:1],
{4}6x,6x,7x,7xqq4[1:1]/8xpp3[1:1],
{1},
{2},2x/5x,

{8}3,4,{4}3,{8}6,5,{4}6,
{8}3,4,{4}3,{8}6,5,{4}6,
{8}E4,E3,E2,E1,E8,E7,E6,E5,
{8}E4,E3,E2,E1,E8,E7,E6,E5,
{1}Ch[1:3],
{1},
{1},
{1},

{1}1h[1:2],
{1},
{1}3h[1:2],
{1},
{1}5h[1:2],
{1},
{1}7h[1:2],
{1},

{1}1h[1:1],
{1}2h[1:1],
{1}3h[1:1],
{1}4h[1:1],
{1}5h[1:1],
{1}6h[1:1],
{1}7h[1:1],
{1}8b,

{4}1,1,{2}1h[2:1],
{4}7,7,{2}7h[2:1],
{4}5,5,{2}5h[2:1],
{4}3,3,{2}3h[2:1],
{4}2,2,2,2,
{4}7,7,7,7,
{8}1,8,1,8,2,7,2,7,
{1}3h[2:1],

{4}1b/2b,3,45,6,
{4}78,6,45,3,
{4}34,34,12,78,
{4}56,56,78,12,
{4}34,5,56,4,
{4}34,5,57,6,
{4}56,56,78,12,
{4}34,34,{2}2b/5b,

{4}6,{8}6,5,,5,{4}7,
{1}7-4[8:3]/8-3[8:3],
{4}3,{8}3,4,,4,{4}2,
{1}1-6[8:3]/2-5[8:3],
{4}7h[4:1],5h[4:1],3h[4:1],5h[4:1],
{4}7h[4:1],1h[4:1],3h[4:1],7h[4:1],
{2}1b,{4}26,2-5[4:1]b/6-1[4:1]b,
{1},

{4}7b/8b,6,12,3,
{4}24,24,57,57,
{8}6,5,{4}6,78,78,
{8}3,4,{4}3,12,12,
{4}34,57,78,78,
{4}56,24,12,12,
{4}8,8-4[4:1],1,1-5[4:1],
{4}6,6,{2}4bx/7b,

{8}6,5,6,5,{4}6,45,
{8}3,4,3,4,{2}2b,
{8}2,1,2,1,{4}2,18,
{8}7,8,7,8,{2}6b,
{8}5h[4:1]/6h[4:1],,,7h[4:1]/8h[4:1],,,{4}1b/6b,
{8}3h[4:1]/4h[4:1],,,1h[4:1]/2h[4:1],,,{4}3b/8b,
{4}4,4-8[4:1],6,6-1[4:1],
{4}2,2,{2}3b/8bx,

{8}2,1,,34,,56,,47,
{2}4b/7b,{8}7,8,,56,
{8},34,,25,{2}2b/5b,
{8}2,4,,4,2,,7,5,
{8},5,7,,3,4,,6,
{8}5,,2,1,,7,8,,
{4}1b/6b,1b>5[2:1]/6b,{2},
{1}B6/B7/B8f/E8,
E

MASTER

(314)
{1},,{2},{16}E4,B4,B5,E6,{4},{1}8<1[4:11]/Cf,,,,8<1[4:11],,,,
{2}1b/8,{16}3,4,3,,,,6,5,{4}6,18,{2}18,2b/7,{16}3,4,3,,,,6,5,{4}6,47,{2}47,
3b/8,{16}2,3,4,,7,6,5,,2,3,4,,7,6,5,,1,2,3,,8,7-3[8:1]b,6,,{1},,
{2}4b/8b,{8}1h[4:1]/2h[4:1],,,6h[4:1]/7h[4:1],,,2h[4:1]/4h[4:1],,,7h[4:1]/8h[4:1],,,
1h[4:1]/3h[4:1],,,5h[4:1]/6h[4:1],,,{4}18,18,27,{6}E6,E4,E5,{1}Cf,{4},3-1[8:1]/7-5[8:1],37,,

1-5[8:1]/6,6,4-2[8:1]/6,6,{8}16,,7,8,,6,5,,{4}3/7-5[8:1],3,3/4-8[8:1],3,{8}13,,2,1,,3,4,,
2,1,2,1,3,8,4,7,5,6,5,6,4,7,3h[4:1],,1,8,7,6,4,3,2,1,7hx[4:1]/8hx[4:1],,,1h[4:1]/2h[4:1],,,46,,
{4}3/7-5[8:1],3,3/4-8[8:1],3,{8}13,,2,1,,7,8,,{4}1-5[8:1]/6,6,4-2[8:1]/6,6,{8}16,,7,8,,2,1,,
3,3,4,2,6,6,5,7,2,8,1,7,8,,25,,{16}3,4,3,,,,5,4,5,,,,3,4,2,,{8},1h[4:1]/5h[4:1],,,{2}2bV46[4:1]/6b,{1}Cf,,,{2},18,

{4}2-5[8:1],1,7-4[8:1],8,{8}3,,2,12,,7,78,,6b,8,7,1,8,2,1,,3h[4:1]/4h[4:1],,,5h[4:1]/6h[4:1],,,7b/8b,,
16,,2,4,3h[4:1],,6,5,7,,48,4hb[8:3]/8hb[8:3],{4},,48,{12}2,1,2,{6}8,8,8v3[3:2]*s4[3:2],{1},
{8}2,2,8,8,1,1,7,7,{16}2,3,4,5,{8}6,8h[4:1],,,17,,2-7[16:3],,,6-3[16:3],,,1-5[16:3],,,8-4[16:3],,,{2}3b,

{1}2h[2:3]/6h[2:3],,{8}3h[8:3],,,4h[8:3],,,{2}5h[2:1],8b,{4}26,
{1}2-7-4-1-6-3-8v5[4:13]/6h[2:1],B8f/E1/E8,B2f/E2/E3,B7f/E7/E8,
7-2-5-8-3-6-1v4[4:13]/3h[2:1],B1f/E1/E2,B7f/E8/E7,B2f/E3/E2,
3V17-5V71-3[4:13]/4h[2:3],,E5hf[2:3],,
{4}1b/8b,,5h[8:1]/7h[8:1],5h[8:1]/7h[8:1],
4h[8:1]/5h[8:1],4h[8:1]/5h[8:1],2h[8:1]/4h[8:1],2h[8:1]/4h[8:1],
3h[2:1],,{12}4,5,6,7,8,1,{4}2h[8:1],2h[8:1],{6}13,13,13,
{4}4hb[4:1]/8hb[4:1],,57,{8}6,5,7,,78,,
7h[16:1]/8h[16:1],1h[16:1]/6h[16:1],2h[16:1]/5h[16:1],3>5[8:11]/4h[16:1],{1}Cf,,

{4}A3/D4/A4/D5/A5/D6/A6,,,{8}E3,B3,B4,,,B6,,,B8,,E4,,,E3,,,E2,,E6,,,E7,,,E8,,
{4}E3/Ch[4:11],,,{16}A1,E2,E3,A3,{4},,,{16}A1,E1,E8,A7,{4},,,{8}A1,A2,A3,A4,A5,A6,A7,A8,A1,A2,
{4}3bx/7b,,,{8}3,4,{4}2hb[2:1]/5hb[2:1],,,{8}6,5,4b/7b,,2,1,38,,7,8,16,,2,4,15,,7,5,
{4}4h[8:1]/8h[8:1],4h[8:1]/8h[8:1],3h[8:1]/7h[8:1],2h[8:1]/6h[8:1],{8}1,1,3,3,5,5,7,7,{1}1b/Cf,{4},,,26,

{8}7b,7,8,{4}6,17,24,5>8[8:3]/7,{8}8,7,6,5,4,3h[4:1],,1,{4}1h[4:1],7h[4:1],5^2[8:1],8-4[8:1],,{8}1,1,,
2,2,1,{4}3,82,75,4<1[8:3]/2,{8}1,2,3,4,5,6h[4:1],,8,{4}8h[4:1],2h[4:1],1-6[8:1],1-4[8:1],1bx,,{8},
7,7,8,{4}6,35,12,7/8>5[8:3],{8}5,6,7,8,1,2hx[4:1],,4,{4}4h[4:1],5h[4:1],7h[4:1],8,2-5[8:1]/6-1[8:1],2b/6b,{8},
{1}3h[2:3]/7h[2:3],,{12}2b,8,2,8,2,8,2x,8,2,8,2,8,1x,7,1,7,1,7,1x,7,1,7,1,7,
{16}2x,3,4,5,6,7,8,1,2,3,4,5,6,7,8,1,2/6x,5,4,3,2,1,8,7,6,5,4,3,2,1,8,7,{1}6/Cf,,,,

{1}8<1[4:11],E3/E4,,E6/E7,1x>8[4:11],E7/E6,,E4/E3,
{2}7V51[2:3],B2/E3,,B4/E5,3V15[2:3],B6/E6,,B8/E8,
{4}7,7h[4:1],5,5h[4:1],4,4h[4:1],{2}2q5[4:5],Cf,,,{12}6,5,6,5,,,
{2}4-1[2:1]/7h[4:1],7h[4:1],7h[4:1]/8-5[2:1],7h[4:1],
{4}4/7h[4:1],4,3h[4:1]/6,6,2/5h[4:1],2,3h[4:1]/6,6,
{8}4,5,4,5,4,5,4,5,3,6,3,6,2,7,2,7,{16}1,8,1,8,1,8,1,8,1,8,1,8,1,8,1,8,{1}2hx[4:3],

{16}1b/2,8,7,6,5,4,{8}3,,1b/5b,{4}1-5[8:1]/5,6-1[8:1],4-8[8:1],7-3[8:1],1,{8}2,2,4,1,6,6,5,8,2,1,{4}3h[4:1],4,57,
8^5[16:3],{16}48,3,2,1,{4},4x/8x,8^3[16:3],{16}48,5,6,7,{4},2x/8x,{8}1,1,8,2,1,1,3,7,1,1,{4}5,37,,
{8}2-6[8:1],,8,8h[8:3],,5,5,,{24}4b/7b,36,25,{4}1/4h[4:1],{24}1x,25,36,{4}47,8x,
{8}7-3[8:1],,1,1h[8:3],,4,4,,{24}5b/2b,63,74,{4}8/5h[4:1],{24}8x,74,63,{4}52,1x,
{8}7,7,5,5,8,8,2,2,4,4,1,1,{4}7,2^5[4:1]/6,5^8[4:1],8^3[4:1],3,5,{1}2hb[4:3]/6hb[4:3],

{16}8b/7,1,2,3,4,5,{8}6,,8b/4b,{4}8-4[8:1]/4,3-8[8:1],5-1[8:1],2-6[8:1],8,{8}7,7,5,8,3,3,4,1,7,8,{4}6h[4:1],5,42,
1^4[16:3]b,{16}51,6,7,8,{4},5x/1x,1^6[16:3]b,{16}51,4,3,2,{4},7x/1x,{8}8,8,1,7,8,8,6,2,8,8,{4}4,62,,
{8}7-3[8:1],,1,1h[8:3],,4,4,,{24}5b/2b,63,74,{4}8/5h[4:1],{24}8x,74,63,{4}52,1x,
{8}2-6[8:1],,8,8h[8:3],,5,5,,{24}4b/7b,36,25,{4}1/4h[4:1],{24}1x,25,36,{4}47,8x,
{8}2,2,4,4,1,1,7,7,5,5,8,8,{4}2,18,{12}2,3,4,5,6,7,3,4,5,6,7,8,{16}2x,1,2,1,2,1,,,{2}3b/8b,

{8}3,3h[4:1],,2h[4:1],,1-5[8:1]b,,8x,{2}8x,{8}6,6h[4:1],,7h[4:1],,8-4[8:1]b,,1x,{2}1x,
{8}2,2-6[8:1],,1,1-5[8:1],,8,8-4[8:1],,7,7-3[8:1],,6,6-2[8:1],,5,5-1[8:1],,4,4,,3,3,,
2/7b,,{16}1b,8,1,7,1,6,1,5,1,4,1,3,{1}Cf,,,,E

Re:MASTER


  • MASTER譜面を追加しました。修正等ありましたらよろしくお願いします。 -- けもがみ (2026-06-12 19:10:13)
名前:
コメント:

タグ:

+ タグ編集
  • タグ:
最終更新:2026年06月25日 05:01