| アーティスト |
Junky feat. 乙姫(CV:浅川悠) |
BASIC
ADVANCED
EXPERT
MASTER
(140)
{2}3^6[4:1],{4},B2h[4:3]/B5h[4:3],
{2}Ch[2:1],{4},1bx/8bx,
{16}6h[8:1],,8,7h[8:1],,1,{8}8,1x/2,1/2x,{4}3x/8,
{16}2h[8:1],,8,1h[8:1],,7,{8}8,{4}1-3[8:1]/6-4[8:1],1b/6b,
{8}3^8[8:1],3,5q1[8:1],5,4p8[8:1],4,{4}6b,
{8}7-3[8:1],7,1-5[8:1],1,8^3[8:1],8,{4}4b,
{8}3x/5q2[8:1],5,4p7[8:1],4,6^1[8:1],6,{4}2,
{16}3hx[8:1]/8hx[8:1],,,1hx[8:1]/6hx[8:1],,,{8}38,{16}2,1,{8}2,{4}37,
{8}6^1[8:1],6,4p8[8:1],4,5q1[8:1],5,{4}3b,
{8}2-6[8:1],2,8-4[8:1],8,1^6[8:1],1,{4}5b,
{8}4p7[8:1]/6x,4,5q2[8:1],5,3^8[8:1],3,{4}7,
{8}56,{16}3,4,,6,{8}5,{16}3,3,{8}4,{4}1b-5[8:1]/2b-4[8:1],
{4}12,7-5[8:1]/8-4[8:1],78,{8}2,2,
{4}1,{8}34,5,46,7,{4}7-5[8:1]/8p4[8:1],
{4}78,1q5[8:1]/2-4[8:1],12,{8}7,7,
{4}8,1h[4:3],{16}E7,E8,E1,E2,E3,E4,E5,E6,
{16}7x-3[8:1],,,8,{8}7,1,{16}2-6[8:1],,,1,{8}2,8h[8:1],
{8}5,7h[8:1],5,6h[8:1],4,{16}3x/5x,3x/5x,{8},34,
{4}2^5[8:1]/5^8[8:1],5-1[8:1],{8}8,8b,,2,
{8}31,2,{4}7^4[8:1]/8^3[8:1],{2}7bx/8bx,
{2}2h[8:13]/4h[2:1],{4},3,
{2}1h[2:1],{4},3/8b,
{4}7h[1:1],{8}1,1,8,8,6,6,
{2}5b,{8}18,2,{4}3-8[8:1]/5,
{4}3/6q1[4:1],1>7[4:1],Cf,8x,
{8}12,{16}3,4,{8}3,2-5[8:1]/5,2/5-8[8:1],6,{4}7x,
{8}16,2,38,7,16,16,78,78,
{24}1h[8:1]/6,5x,4x,{8},{24}1h[8:1]/6,5x,4x,{8},{24}1h[8:1]/6,5x,4x,{8},{4}7-2[8:1]/8,
{4}3p1[4:1]/7,1<2[4:1],Cf,1x,
{8}18,{16}2,4,{8}3,56,{4}7/8>4[4:1],E7f,
{4}1<5[4:1],E3f,8-2[8:1],6/8-6[8:1],
{4}3/8-4[8:1],58,17,2-6[8:1],
{4}2b/7q8[4:1],8>6[4:1],Cf,8x,
{8}78,{16}6,5,{8}6,4/7-4[8:1],4-1[8:1]/7,3,{4}2x,
{8}2,2h[8:1],4,4h[8:1],5,5h[8:1],7-1[8:1],6,
{8}2-5[8:1]/7,3,28,8,{4}37,6x-2[8:1],
{4}2<4[4:1],{8}3,2,{4}1,3bx/7bx,
{16}2,8,2,8,{8}1,78,{4}7/8^3[8:1],6/8^5[8:1],
{4}2/8-2[8:1]*-3[8:1],8-5[8:1]*-6[8:1],8,{8}78,1,
{8}25,{16}3,4,{8}3,25,36,47,{4}8b/Cf,
{16}3h[8:1]/7h[8:1],,,1h[8:1]/2h[8:1],,,{8}38,38,26,{4}2x/6x,
{16}7h[8:1]/8h[8:1],,,1h[8:1]/6h[8:1],,,{8}35,{4}2-5[8:1]/6-1[8:1],26,
{2}3b/7b,{16}7,8,{8}7,16,2,
{8}38,{16}7,5,6,4,5,3,{8}4,1x/5x,{4}1x/5x,
{8}7h[8:1],8h[8:1],{16}7,7,8,6,{8}1h[8:1],3h[8:1],{16}2,2,4,4,
{16}3,,,24,{8}24,35,46,{16}7,5,,5,{8}7,
{16}4x/8x,1,2,3,1x/4x,2,3,4,2x/5x,3,4,5,6x,7,8,1,
{16}5x,4,3,2,1x/8x,7,6,5,1x/4x,2,3,4,{4}58,
{8}38,{16}2,1,3,4,2,5,{8}1h[8:1],{16}7,8,6,5,7,4,
{4}8bp4[8:1],{24}48,3x,2x,{8}1x,25,25,{4}1b/6b,
{2}7<3[2:1],{4},B4,
{2}2>6[2:1],{4},B5,
{2}E7h[2:3],E6h[1:1],
{2}E5h[2:1],C,
{2}E3h[2:3],E4h[1:1],
{2}E5h[2:1],C,
{1}Ch[1:1],
{2}8b,{16}7,5,,3,4x,3,,12,
{4}1b-5[8:1]/2b-6[8:1],1b^6[8:1]/2b^5[8:1],1b/2b,4x/7x,
{16}6,5,7,4,{8}8,1/2pp4[8:1],3/4>8[16:3],5,{4}6bx,
{8}6,57,3,24,{16}6,5,{8}6,7/8<3[4:1],12,
{4}3<8[4:1],8,3,1x-5[8:1]/2x-4[8:1],
{4}1-7[8:1]/2-6[8:1],1q5[8:1]/2^4[8:1],12,5x/7x,
{16}6,8,7,1,{8}8,12,{4}3/8<2[4:1],B2/E2f/E3,
{4}8>6[4:1],B6f/E6/E7,8h[4:1],{8}6,6,
{4}57,{8}34,{16}2,2,4,4,3,3,{4}4q8[8:1]/5^7[8:1],
{4}4b^2[8:1]/5bp1[8:1],4bq5[4:1]b/5b<4[4:1]b,{2}A4/A5/D5f,
{8}78,16,{16}2,1,{8}2qq8[8:1],3/8>5[4:1],7,{4}6bx,
{8}6h[8:1],8h[8:1],1h[8:1],3h[8:1],4,{16}6,5,{8}7<1[4:1],8,
{4}1>7[4:1]/7,8,{8}1,1,{4}2b-6[8:1]/8,
{4}1-5[8:1],8-4[8:1],7-3[8:1],6b-2[8:1],
{4}5-1[8:1],4-8[8:1],3,1b^6[8:1]/2bp6[8:1],
{4}12,7q3[8:1]/8^3[8:1],78,{8}12,3,
{8}34,{16}6,5,{8}6,47,2/E6,7/E4,{4}1b/Cf,
{8}37,{16}2,1,,1,{8}3h[8:1],4x,2x/5x,{4}1x/6x,
{8}78,{16}6,5,,5,{8}8,{4}2-5[8:1]/6-1[8:1],26,
{4}3b/7b,{16}6,5,7,3,4,2,7,8,{4}16,
{16}2h[8:1],,4,4h[8:1],,6,{8}6,{4}4-1[8:1]/8-5[8:1],48,
{32}15,2,3,4,5,6,7,8,1,2,3,4,5,6,7,8,{2}1/Cf,
E
Re:MASTER
最終更新:2026年06月14日 18:42