BASIC
ADVANCED
EXPERT
MASTER
(70){1},
{2}4h[8:3]/6h[8:3],3h[8:3]/5h[8:3],(70.5)4h[8:3]/5h[8:3],4h[8:7]/6h[8:7],,(73){4}3h[71.75#8:7],,5h[70#8:3],(67.5){8},,(72.5){2}2h[2:3]/6h[2:3],,,(344){2},1b/7b,
(172){4}8-4[8:1],48,{8}3,3h[4:1],,1h[4:1],,8h[4:1],,6-2[8:1],,4V28[4:1]/6,,1,,6,6,,78,5,4,2h[4:1],,1w5[8:1],1,,,37,37,,1-5[8:1],1,5,,6,6h[4:1],,8h[4:1],,1h[4:1],,3-7[8:1],,3/5V71[4:1],,8,,3,3,,12,4,5,7h[4:1],,8,8,1b/6b,1b/6b,,34,,
2h[4:1]/4,,3,,2/4h[4:1],,3,,3/5h[4:1],,4,,5/7h[4:1],,5,,4h[4:1]/6,,5,,3/5h[4:1],,3,34,,25,25,25,{16}3,4,,6,{8}5,57,5/7h[4:1],,6,,6/8h[4:1],,7,,1h[4:1]/7,,8,,1/3h[4:1],,1,12,,24,34,,56,5>6[8:5]/6,,Cf,,,,,,,1x/8x,,2,2,4,3,6,5,7,7<4[8:1],,4,3,2-4[8:1],,5-1[8:1],,3,,2,3,2h[4:1]/4h[4:1],,,1,1h[4:1],,8-4[8:1],,8qq6b[16:3]*pp2b[16:3],,,,,7,7,5,6,3,4,2,2>5[8:1],,5,6,4h[4:1]/7h[4:1],,,8,8-4[8:1],,5,{4}5<8[8:1]*>2[8:1],5qq2[8:5]*pp8[8:5],,,,46,3>7[2:1],
(174)4,4,6<2[2:1],5,4,3>7[2:1],(188)4,5,6-1[8:3],4,3,2>6[2:1],(193)1,8,7<3[2:1],8,(200)8,1q5[8:3],(206)5,7,8p4[8:3],4,(209)2,1,24,{8}3,3,24,,(216)5,5,35,,46,,(220)57,,6,6,57,,(183)4,4,46,,35,,(155)24,,(145)1,1,(128)7,7,(170){4}3h[2:1],4,4,6h[2:1],5q1[8:1],,2h[4:1],1,38,7h[4:1],8,16,(172)35,{8}24,2,24,,57,7,57,,46,3,35,,(175)6-2[8:1]/2-5[8:1],,
2b/6b,,1,8,{4}7>3b[4:1],3<7b[4:1],7,3,4/6-2[8:1],3-8[8:1],1>4[8:1],1<6[8:1],1-5[8:1],1>7[2:1],1,7,8,5p1[8:1]/6,{16}57,,,8,1x-5[8:1],,1,,4,,,,3/4q8[8:1],,,,24,,,1,8x-4[8:1],,8,,{4}5,6-2[8:1]/5-1[8:1],56,4-8[8:1]/3-7[8:1],34,56,7<2[4:1]/8h[2:1],,,5-2[8:1]/3>1[8:1],35,{8}8,1,2-5b[8:1],,6-1b[8:1],,4,4,{4}8,3-7[8:1]/5,6-1[8:1],8<5[8:1]*-3[8:1],8,4-7[8:1]*>1[8:1],4qq8[2:1],6,6,5,1/4q8[8:1],{16}24,,,1,8x-4[8:1],,8,,5,,,,5p1[8:1]/6,,,,57,,,8,1x,,1,,{4}12,2-4[8:1]/1-5[8:1],2-6[8:1]/1-7[8:1],2p2[2:1]/1<2[2:1],,,,,,(190),
(172){16}78,,5,6,{8}5,4,3,2h[4:1],,4h[4:1],,6,7,8-5[8:1],,8V24[4:1],,6,,8,7,6,4,3,2,18,{16}7,5,6,5,{8}6,7p3[8:1]/4-1[8:1],,47,,,(167)1/2x,{16}4,3,{8}4,5,6,7h[4:1],,5h[4:1],,{64}3,,,,,,,2,(210){8},(163){16}1h[12:1],,,6h[14:1]/8h[14:1],,,3h[14:1]/4h[14:1],,,{32}2h[10:1]/8h[10:1],,,,,,,4h[12:1]/6h[12:1],,,,,,,46,,,,,(160){14}E4,E6,E3,E7,E2,E8,E1,(170){8}8x-4[8:1],1x/7x,8b,,35,35,46,4>1[8:1]/6,,5,6,{16}6,5,{4}4-8b[16:13],(129)4b,,,,
(175){32}8b,17,26,35,{8}4,8,1,{4}2<6b[4:1],6>2b[4:1],2,6,3-7[8:1]/5,6-1[8:1],8<5[8:1],8>3[8:1],8-4[8:1],8,35,{16}46,,7,5,6,,45,,3/4q8[8:1],,,,24,,,1,8x-4[8:1],,8,,5,,5,,5p1[8:1]/6,,7,,57,,,8,1x-5[8:1],,1,,4,,4,,{4}4-8[8:1]/3-7[8:1],34,6-2[8:1]/5-1[8:1],56,34,{16}34,,2,4,2,4,2,4,3,5,3,5,{8}6<8[8:1]/4-7[8:1],,46,,1,8,7-4b[8:1],6,3-8b[8:1],2,5-8b[8:1],4,1,,4/6-2[8:1],,3-8[8:1],,1-6[8:1]*>4[8:1],,1,,5<8[8:1]*-2[8:1],,5,,3-1[8:1]/7,6,5<8[8:1],4,3,,5p1[8:1]/8x,,57,{16},8,1x-5[8:1],,1,,4,,4,,3/4q8[8:1],,,,24,,,1,8x-4[8:1],,8,,5,,5,,5/6<1[8:1],,,,4b,,,,34,,,,6,5,6,,{4}8-4[8:1]/7-5[8:1],8-2[8:1]/7-3[8:1],8-4[8:1]/7-5[8:1],78,2x/4x-8[8:1],
3-6[8:1]/4,3/7-2[8:1],5-2[8:1]/7,1-6[8:1]/5,1/4>1[8:1],4/5<8[8:1],35,7-4[8:1]*-2[8:1],7,3-8[8:1]*-6[8:1],3,7q8>5[2:1],Cf,,,5-8[8:1]/6,4-1[8:1]/5,2>5[8:1]/4,12,3/4-1[8:1],4/5-8[8:1],5/7<4[8:1],78,6-2[8:1]/5-1[8:1],5b/6b,4-8[8:1]/3-7[8:1],3b/4b,2-6[8:1],1-5[8:1]/2,1/8-4[8:1],78,1b-6[8:1]/5bh[2:3],
1-4[8:1],1<7[8:1],1>3[8:1],1-6[8:1],1-4[8:1],1-5[8:1],16,{8}3>8[8:1],4,5,,6<1[8:1],5,4,,3>8[8:1],4,5,,7,6,{4}57,4h[1:1]/8-3[8:1],8-5[8:1],8>2[8:1],8-6[8:1],8,{16}35,,2,4,3,4,3,,7,5,{8}6,2-6[8:1]/4h[4:1],,(178)2b,,,,(172){16}57,,,45,,,2/4<2[16:11],,
(120){4},Cf,,(150),(117){8}6,5,4,3,2,,(240){12}5h[2:13],4,3qq6[12:73],{1},,,,,,,,,,,,,,
E
Re:MASTER
最終更新:2026年06月28日 21:42