アットウィキロゴ

運命線上のアリア

アーティスト 森羅万象

BPM BASIC ADVANCED EXPERT MASTER Re:MASTER
185 4 7+ 10+ 13+ -

EXPERT MASTER Re:MASTER
譜面制作者 Luxizhel じゃこレモン -

BASIC


ADVANCED


EXPERT


MASTER

(185)
{1},

{4}5x/7x,57,57,{8}6,6q2[4:1],
{8},5,4,3,{16}3h[16:3],,,4h[16:3],,,{8}5,
{4}5qq1[2:1],8,7,6,
{8}7,7h[4:1],,{16}E4,E5,E6,E7,E8,E1,{4},
{4}2x/4x,24,24,{8}3,3p7[4:1],
{8},4,5,6,6q2[4:1],5,{4}4>5[4:3],
{2},{4},{8},8,
{4}8<4[4:1],{8}3,2,{2}1b,

{4}3/6h[1:1],5,{8},4,{4}4,
{4}3h[1:1],4,{8},5,{4}5,
{4}6h[4:3],5,{8},4,{4}4,
{2}4h[4:1]/5h[4:1],3h[4:1]/4h[4:1],
{4}2h[1:1],3,{8},4,{4}4,
{4}7h[1:1],6,{8},5,{4}5,
{4}4,{16}45,,,3,{8}4,4,4,26,
{2},4b/5b,

{4}1x/8x,{8}6,6,{16}7-3[8:1],,,4x,,,{8}2h[4:1],
{8},1,8,7,{16}6-2[8:1],,,1x,,,{8},
{8}3,3,4,1,6,6,5,8,
{4}4x<1[4:1],3,2xqq4[8:3],5,
{4}6x,7,46,24,
{4}1^4[8:1]/5,{8}7,8^5[8:1],,2,,14,
{8},35,6,7,58,4,3,2h[4:1]/6h[4:1],
{4},{8},{16}5,3,{2}7x,
{4}1b/8b,4b/5b,2b/3b,6b/7b,

{4}5x/8xq4[8:1],78,6q2[8:1],{8}56,4-1[8:1],
{8},34,,2,{4}1p5[8:1]/8^6[8:1],18,
{4}3-1[8:1],5-1[8:1],2-4[8:1],{8}8,8-5[8:1],
{8},8pp5[8:3],,8,{4}6,7,
{4}1xq6[4:1]/4x,12,3p7[8:1],{8}34,5-8[8:1],
{8},56,,7,{4}1^3[8:1]/8q4[8:1],18,
{4}6-8[8:1],4-8[8:1],7-5[8:1],{8}1,2b,
{8},3b/4b,,5b/6b,{4}7b/8b,2-7[8:1],

{4}2x/8x-5[8:1],6x-3[8:1]/8x,4x/6x,{8}2,2,
{8},46,7,8,{16}1/2h[16:3],,,3h[16:3],,,{8}4,
{1}5p8[2:1]b*>8[2:1]b,
{8}6x,6h[2:1],,{16}5,4,3,2,1,8,{4}7-2[8:1],
{4}1x-4[8:1]/7x,1x/3x-6[8:1],3x/5x,{8}8,8,
{8},47,{4}4x/7x,{8}25,{16}3,4,{8}3,{16}6,5,
{4}6-2-8[4:1],{8},4,{2}5-1[8:1],
{8}2b/6b,2b/6b,3b/7b,3b^8[8:1]/7b^4[8:1],{2},

{6}2x/5x,6,7,58,4,3,
{6}25,6,7,58,4,3x/5x,
{6}1x/4x,5,6,47,3,2,
{6}14,5,6,47,{12}3,3,5,5,
{6}2xh[2:1],3,4,5h[2:1],4,3,
{6}3h[2:1],4,5,6h[2:1],5,4,
{6}4h[2:1],5,6,7h[3:1],6,5,
{8}4x/6x,46,35,35,{16}6,4,6,4,7,5,7,5,

{2}8xpp5[8:3],{8}4,3,2,1V35[4:1],
{8},6,7,8V64[4:1],,3,2,1-5-2[4:1],
{8},6,{4}8h[4:1],{8}1,2,3,4-8[8:1],
{8},7,6,5,14,25,36,4x/7x,
{8},2v4[8:1],{4}1V75[16:3],,{8}3,26,
{8},7v5[8:1],{4}8V24[16:3],,6>2[4:1]*<2[4:1],
{2}6,{8}48,3,2,1/5h[8:7],
{8},8,7,6,,4,{4}3,

{4}1x/8xpp4[2:1],58,,7,
{4}1xqq5[2:1]/8x,14,,2,
{4}1x/8xpp4[2:1],58,,7,
{8}3,24,6,57,{16}3,6,3,6,{4}2,
{8}1x-5[8:1],1,7-3[8:1],7,4-8[8:1],4,{4}6x,
{8}5x-1[8:1],5,3-7[8:1],3,8-5[8:1],8,{4}1x,
{2}2xh[8:3]/4xh[8:3],5xh[8:3]/7xh[8:3],
{1}2x>7<2[2:3]/8xz4z8[2:3],

{1},
{2}2xh[8:3]/4xh[8:3],{8}35,6,7,5x/8x,
{8},{16}3,4,{8}3,{16}2,1,{4}2^5[8:1],6,
{8}78,1b/6b,,12,{4}3b/8b,B1/B8/E1f/E2/E8,

{4}4h[4:3]/5,5,5,5,
{4}3h[4:3]/5,5,5,5,
{4}2h[4:3]/4,4,4,4,
{4}1h[4:1]/4,4,48,48,
{4}1xs5[2:1],{8}5,5,6,6,7,7,
{4}8xz4[2:1],{8}4,4,3,3,{4}2v5[8:1]*v7[8:1],
{1}2x,
{6}6b/8b,1b/3b,4b/5b,5b/7b,2b/4b,1b/8b,
{4},67,45,23,

{4}1xp5[8:1]/4x,12,3p7[8:1],{8}34,5-8[8:1],
{8},56,,7,{4}1^3[8:1]/8q4[8:1],18,
{4}6-8[8:1],4-8[8:1],7-5[8:1],{8}1,1^4[8:1],
{8},1qq4[8:3],,1,{4}3,2,
{4}5x/8xp3[4:1],78,6q2[8:1],{8}56,4-1[8:1],
{8},34,,2,{4}1p5[8:1]/8^6[8:1],18,
{4}3-1[8:1],5-1[8:1],2-4[8:1],{8}8,7b,
{8},5b/6b,,3b/4b,{4}1b/2b,4^1[8:1]/8,

{24}8x,7,6,{8}5,{4}2b/7b,3/8^5[8:1],{8}4,4v2[4:1]b,
{8},2<6[4:1]b,,6,{4}6,4,
{8}1x/5x,6,37,8,{4}1-5[8:1]/5,{8}4,4v6[4:1]b,
{8},6<2[4:1]b,,2,{4}2,4,
{4}5x/8xq4[8:1],78,6q2[8:1],{8}56,4-1[8:1],
{8},34,,2,{4}1p5[8:1]/8^6[8:1],18,
{4}3-1[8:1],5-1[8:1],2-4[8:1],{8}8,8,
{8},3-7^1[4:1]b*-7^5[4:1]b,{4},,2x-7[8:1],

{4}2x/8x-5[8:1],6x-3[8:1]/8x,4x/6x,{8}24,24,
{8},12,3,4,{16}5/6h[16:3],,,7h[16:3],,,{8}8,
{4}8<4[4:1],4>8[4:1],8<4[4:1],{8}4,2,
{8},12,,45,{4}45,7-2[8:1]/8,
{4}1x-4[8:1]/7x,1x/3x-6[8:1],3x/5x,{8}57,57,
{8},78,6,5,{16}3h[16:3]/4,,,2h[16:3],,,{8}1,
{4}1>5[4:1],5<1[4:1],1,{8}5,5,
{8}46,{16}7,8,{8}7,{16}2,1,{8}2,34,{4}34,

{4}2x/7x-3[8:1],7/8-4[8:1],5-1[8:1]/8,3-7[8:1]/5,
{4}2p6[8:1]/3,2/5-1[8:1],5/8-3[8:1]b*-5[8:1]b,8,
{4}1x-5[8:1]/6x,1/8-4[8:1],3-7[8:1]/8,3/5-8[8:1],
{4}15,13,{8}48,48,{4}4q8[8:1]b/8<4[8:1]b,
{4}4b/8b,2,{8}34,34,56,56,
{8}78,78,12,12,38,47,{4}5-1[8:1]/6-2[8:1],
{4}5x/6x,{8},{16}3,5,3,5,3,5,4,6,4,6,
{1}3b/7b,

{8}2h[8:3],,4,5h[8:3],,3,{4}2h[4:1],
{8}7h[8:3],,5,4h[8:3],,6,{4}7h[4:1],
{8}2h[8:3],,4,5h[8:3],,3,{4}2,
{8}7,6,5,4,3,4,5s1[1:4],6,
{1}5x/7x,
{1},
{1},
{1},
E

Re:MASTER


名前:
コメント:

タグ:

+ タグ編集
  • タグ:
最終更新:2026年06月27日 23:12