アットウィキロゴ

デンデラパーティーナイト

アーティスト 森羅万象

BPM BASIC ADVANCED EXPERT MASTER Re:MASTER
181 4 7+ 10+ 13 -

EXPERT MASTER Re:MASTER
譜面制作者 はっぴー サファ太 -

BASIC


ADVANCED


EXPERT


MASTER

(181)
{2}5h[2:1]/7h[2:1],{4},45,
{2}2h[2:1]/4h[2:1],{4},45,
{2}6h[4:1]/7bxh[4:1],2bxh[4:1]/3h[4:1],
{4}1b,2b,3bh[4:1]/5^8[8:1],A5f,

{12}2,,2,1,,3,7,,7,8,,6,
{12}2,,2,4,,3,7,,7,5,,6,
{12}3,,3,1,,1,8,,8,6,,6,
{12}5,,5,7,,7,{4}1,28,
{12}7,,7,5,,6,2,,2,4,,3,
{12}8,,8,6,,6,{4}4,3x/5x,
{2}B5/B6/E5/E6/E7,B2/B3/E2/E3/E4,
{12}7x,8,7,2x,1,2,8x,7,6,2x,3,4,

{1}5bh[1:2],
{2}E5,E6,
{1}E5h[2:1],
{2}B5/B6,B4/B7,
{2}1/2h[1:2],E2,
{2}E3,E4,
{4}4b-8[8:1],3,{12}5/7x,,6,5,,3b/7b,
{12},,2,1,2,1,{2}3^6[8:1],

{4}7xh[4:1],6h[4:1],5h[4:1],4h[4:1],
{4}3h[4:1],2h[4:1],1,1/2V46[2:1],
{4}1,1,1,7V53[2:1]b/8,
{4}8,8,8,12,
{4}1/2h[4:1],1,1/3h[4:1],1,
{4}1/4h[4:1],1,1-4[4:1]/3,4-7[4:1],
{4}7,1h[4:1],7,{12}26,,2b/6b,
{12},,6,4,5,3,{4}4,1b/8b,

{4}7-5[8:1]/8,8,1/7-4[8:1],1,
{4}7-3[8:1]/8,1-5[8:1],8,46,
{4}1/2-4[8:1],1,2-5[8:1]/8,8,
{4}1/2-6[8:1],8-4[8:1],1,35,
{4}2^7[8:1],4,6^3[8:1],1,
{6}2bx,13,13,7bx,68,68,
{4}1h[6:1]/5h[6:1],2bx/4bx,4h[6:1]/7h[6:1],5bx/6bx,
{4}2h[6:1]/5h[6:1],3bx/4bx,4h[6:1]/5h[6:1],3bx/6bx,
{4}78,12,{12}34,,3x>5[12:7]/4x,,,B4f,
{1},
{12}2b,4,3,{4}4,{12}7b,5,6,{4}5,
{12}3b,4,2,6,5,7,{12}1,,2x^5[8:1]b/8x^5[8:1]b,,,2bx/8bx,

{4},6-1[8:1],3-8[8:1]/6,3/5-1[8:1],
{4}4>6[4:1]/5,4/8x,,2x/4x,
{4}3^8[8:1]/5h[4:1],3,7x-4[8:1],7,
{4}3x/5x,{12}46,,2b/8b,,,1^4[8:1]/7^4[8:1],,,1bx/7bx,
{4},4-1[8:1],4/6>3[8:1],6/8>3[8:1],
{4}8w4[8:1]b,8x,2x/6x,1>5[4:1]/7,
{4}5<1[4:1],1>5[4:1],5,1,
{12}7,8,6,2,1,3,5bx,,46,46,,2bx/8bx,

{12},,3-8[8:1],7-4[8:1],,3,7,,1-3[8:1],5-1[8:1],,1,
{12}5,,4^2[8:1],8^5[8:1],,4bx,8,,1x,1x,,3,
{12}3h[6:1],,5,5h[6:1],,7,7h[6:1],,1,1,,28,
{12}28,,3>8[8:1]/7<4[8:1],,,3bx/7bx,{4},{12}15,,37,
{12},,8,8-4[8:1],,1,1,,3,3,,12,
{4}1h[6:1]/2h[6:1],7h[6:1]/8h[6:1],{12}56,,47,,,25,
{2}2bxh[2:3]/5bx,{12}4,,E4,{4}A3,
{12}5,,E5,{4}A4,{12}3,,A2f/A4/D3/D4/E3/E4,,,18,
{2}1bx/8bx,{12}7,7,5,6,,A2/A4f/D3/D4/E3/E4,
{2},{4},2q7p2[2:1]b/3^6^3[2:1]b,
{2},{4},18,
{12}7,8,6,2,1,3,{4}5-2[8:1]*-8[8:1],5b,

{12}37,,6,5,,5,7,,2,1,,1,
{12}3,,7,8,,8,6,,2,4,,4,
{12}3b,,3,1,,1,8,,8,6,,6,
{12}4,,4,6,,57,{2}5-2[8:1]b/7-4[8:1]b,
{12}1b/5b,,2,4,,4,5,,5,7,,7,
{12}5,,5,4,,4,2,,2,1,,28,
{1}2b/8bV27-3-6[1:1],
{2}1bxh[4:1],{12}2,3,4,8,7,6,
{1}2h[1:1]/5h[2:1],
{4},35,3/5h[2:1],{48},,,,,,,,,,E3,E4,

{1}E5h[4:3],
{1}E8h[4:3],
{1}E6h[4:3],
{2}E1,C,
{4}E5,E4,E3,E2,
{4}E1,E8,E7,45,
{12}4,5,4,{4}3bx/6bx,{12}3,4,3,{4}2bx/5bx,
{12}6,5,6,{4}4bx/7bx-4[8:1],{2}2-5[8:1]*-7[8:1],
{4}4bx/8bx,1bx/3bx,6bx/8bx,1bx/2bx,
{4}6bh[6:1]/8bh[6:1],1bh[6:1]/2bh[6:1],{12}3b/8b,,5w1[8:1]b/6,,,5bx,

{4},3x-6[8:1]/7x,3/8-3[8:1],5-8[8:1]/8,
{4}2xV86-4[4:1]/5,2x,,26,
{4}4h[4:3]/7^2[8:1],7,3x^6[8:1],3,
{4}8,{12}12,,4b/8b,,,3^8[8:1]/5^8[8:1],,,3bx/5bx,
{4},2-5[8:1]/7,2/6-1[8:1],3-6[8:1]/6,
{4}3-8[8:1]/7-4[8:1],3bx/7bx,15,5/7V13[4:1],
{4}3>7[4:1],5,3,46,
{12}2,4,3,7,5,6,1b,,28,28,,4bx/6bx,

{12},,3-8[8:1],7-4[8:1],,3,7,,1-3[8:1],5-1[8:1],,1,
{12}5,,4^1[8:1],7^4[8:1],,4bx,7,,8,8,,2,
{12}2h[6:1],,4,4h[6:1],,5,5h[6:1],,7,7h[6:1],,6,
{12}6,,5-1[8:1]/7-4[8:1],,,5bx/7bx,{4},{12}35,,1bxh[4:1]/7bx,
{12},,8,8,,17,17,,26,2/6q3p6[2:1],,3,
{12}3,,4,4,,5,5,,47,{4}47,
{2}1b/8b,{12}6,,6,5,,5,
{12}8,,8,6,,6,7,,5b/8b,{4},
{2}2bxh[2:1]/6bx,{12}4,,4,3,,3,
{12}1,,1,2,,2,E4,,A3/A4/B3/B4/D4f,{4},
{4}1-6[8:1]/8,1/2-5[8:1],25,6<2[4:1],
{4}2<6[4:1],6>2[4:1]b*V42[4:1]b,{2},
{12}12,,38,38,,7,4,6,5,7,6,8bh[12:10],
{2},{4},6^1[8:1]*q2[8:1],

{4}A6/D6/D7,3^8[8:1]*p7[8:1],A3/D3/D4,5-2[8:1],
{4}5-8[8:1]/7,3w7[8:1]b/5,{2}A2/A3f/A4/D3/D4,
{1}1p5[4:3]/7h[4:7],
{2},5h[4:1],
{4}4b/5b,2bq7[4:1]b/3b,1b,8b,
{12}7,8,6,2,1,3,{4}4^1[8:1]/5^8[8:1]b,4b/5b,
{1}B1/B2/B3/B4/B5/B6/B7/B8/Cf/E1/E5,
E

Re:MASTER


名前:
コメント:

タグ:

+ タグ編集
  • タグ:
最終更新:2026年06月28日 16:40