BASIC
ADVANCED
EXPERT
MASTER
(220)
{4},,5<2p4[4:13],4,3h[2:1],,,2,2,{8},4,{4},{1}3h[4:5],{4},,,4>7q5[4:13],5,
6h[2:1],,,7,7,{8},5,{4},{1}6h[4:5],{4},,,7p2[4:7],8,
1h[2:1],,,8,8,{8},1,{4},{1}3^6[1:1],{4},,,8,7,
6,5,4,3qq8[1:3]/5h[4:3],{1},7bqq4[4:7]b,,,2h[4:3]/6h[4:3],
{8}3,4,5,3,4,5,3,4,5h[4:1],,4,3h[4:1],,4,35,,6,5,4,6,5,4,6,5,4h[4:1],,5,6h[4:1],,5,64,,
3h[4:1],,4,2-5[8:1]/5,,6,,,6h[4:1],,5,7-4[8:1]/4,,3,,,2h[4:1],,1,3-8[8:1]/8,,7,,,7h[4:1],,8,6-1[8:1]/1,,2,,,
2,2,13,4,5,5,46,7,8,8,17,2,3,3,24,,{16}3,4,3,4,2,4,2,4,{32}E3,E4,E5,E6,E7,E8,E1,E2,{4}C,
A7/D8/A8,A2/D2/A1,D4/E4/B4/B5/E6/D6,1b/8b,
{16}2-5[8:1],,,1,2,,8,,7-4[8:1],,,8,7,,1,,{8}23,2,28,2,24,2,2/E1,,
{16}3-1[8:1],,,4,3,,5,,6-8[8:1],,,5,6,,4,,{8}31,3,35,3,31,3,3/C,,
{16}7,8,7,8,{8}7,,56,47,38,,{16}2,1,2,1,{8}3,,48,7,56,4,
3h[4:1],,4,{4}2-4[8:1]/5-1[8:1],25,38,{8}57,57,,{16}3,4,{8}3,25,,
3-6[8:1],,6,7,8-4[8:1],,3,2,{4}1-4[8:1]*-6[8:1],1,5-2[8:1]*-8[8:1],5,
1>5[4:1],5<1[4:1],1>5[4:1],5V38[8:3],Cf,,{8}7,8,16,,
{16}3,4,3,4,{8}2,,12,18,78,,{16}6,5,6,5,{8}7,,48,3,12,8,
{2}1-5[8:1]/7-5[8:1],4-2[8:1]*-8[8:1],1p4[4:1]/7q4[4:1],{4},2b/6b,
{16}78,6,5,4,1-6[8:1],2,3,4,{2}1b/5v2-4[16:7],
{16}7hx[1280:1],,,8hx[1280:1],,,1x/5x,,{4}1^6[8:1]/5^2[8:1],1bxp5-2-7[2:1]/5,
1bx/4x,,{16}6bh[1:1],,,E1f,,,E2f,,,E3f,,,{4}E4f,5x-2[8:1],5-1[8:1],
5-8[8:1],5/7q3[8:1],1bV75-3^2[2:1],Cf,,{8}1,1,{2}2bh[4:1]/8bh[4:1],
{8}5/7h[4:1],4,3,2,1h[4:1]/7,6,5,4,
{16}2h[8:1]/3h[8:1],,,1h[8:1]/8h[8:1],,,{8}67,6-1[8:1]/7-4[8:1],,67,,
{1}2x/5hx[4:11],{4}D4,D5,D6,,E6,E5,E4,2h[4:11],E6,E5,E4,,
E2,E1,E8,,E6,E5,E4,,8,7,1,2,3,45,36,,
3^6[2:1],,,{8},7,{4}7h[2:1],6^3[2:1],,,7V53[2:1],,,{8},2,
{4}2h[2:1],3V52[2:1],,,1h[2:1],,3,{8},24,{4}24,45,57,8,
{8}7,7,5,5,4,4,2-6[8:1],2,{4},,,1/8-6[8:1],
{8}8b-3[8:1],2,8<4[16:3],5,8,{16},1,{8}1-3[8:1],4,1-6[8:1],6,1^4[8:1],4,1,{16},7,7,,5,,
4h[8:1]/6h[8:1],,,3h[8:1]/5h[8:1],,,24,,
2h[8:1]/5h[8:1],,,3h[8:1]/6h[8:1],,,47,,{4}4s8[4:1]/7z3[4:1],,,1x/2x,
{8}2-4[8:1],1-5[8:1],2^7[8:1],1,2,{16},6,{8}6,5,7-5[8:1],8-4[8:1],7^2[8:1],8,7,{16},3,{8}3,4,
{16}34,,,12,,,78,,78,,,56,,,34,,{1}3v5[4:3]/4,6V82[4:3],3-5[2:1],
{16}6h[8:1],,5,6,5,,4h[8:1]/7h[8:1],,,4h[8:1]/7h[8:1],,,2h[8:1]/5h[8:1],,,2h[8:1]/5h[8:1],
,,3h[8:1]/4h[8:1],,,4h[8:1]/5h[8:1],,,{2}3b/6b,{1},{4},,,1^3[8:1]/5^7[8:1],
1b-5[8:1]b/5b,1/8-3[8:1],8/4-1[8:1],4/5-8[8:1]b,5/2w6[8:1],2,{8}8,8,{4}4-1[8:1]/7-1[8:1],
4/7-5[8:1],7/2x-5[8:1],2/7-3[8:1],7/1^4[8:1]*-6[8:1],1,3x/7x,{16}6,5,7,,{4}4b-2[8:1]/8-6[8:1]b,
4-8[8:1]b/8,4/7p3[8:1],7/1-5[8:1],1-3[8:1]b*-7[8:1]b,1s5[8:1],1,37,{8}3,4,
{4}2-8[8:1]b/5-8[8:1]b,25,2-6[8:1]b/7-4[8:1]b,27,2x/8x,{16}1,1,1,1,1,1,1,1,{4}2x/8x,
1h[8:1]/7h[8:1],1h[8:1]/7h[8:1],{16}2h[8:1]/4h[8:1],,,4h[8:1]/5h[8:1],,,{4}57,{16}6,6,{4}57,{16}3,4,2,,6,5,7,,
{4}2-6[8:1]/8,2b/1-5[8:1],1b/8-4[8:1],8b/7-3[8:1],7b/1b^4[8:1]*-4[8:1],1b^6[8:1]*-6[8:1],1b,25,
{16}34,,2,4,3,,6,5,{8}7,12,12,,{24}2,3,4,1,8,7,3,4,5,8,7,6,{4}5w1[8:1],5,{8}37,37,26,26,15,15,84,,
{32}D1,D2,D3,D4,D5,D6,D7,D8,D1,D2,D3,D4,D5,D6,D7,D8,D1,D2,D3,D4,D5,D6,D7,D8,{4}B1/B2/E2f,
{4}4-1[8:1]/8-5[8:1],4b/8b,2h[8:1]/6h[8:1],26,{8}3-8[8:1],3,7-4[8:1],7,2-5[8:1],2,{4}1,
4^1[8:1]/8^5[8:1],48,2-7[8:1]/6-3[8:1],26,{8}8-3[8:1],8,4-7[8:1],4,1-5[8:1],1,{4}8b,
7>5[2:1],E1,5V71-3[2:1],B4,3<1[2:1]b,E4,1V35[4:1]b,C,
{8}7,7,68,1,24,3,45,6,7h[16:1],7h[16:1],6h[16:1]/8h[16:1],6h[16:1]/8h[16:1],
1h[16:1]/5h[16:1],1h[16:1]/5h[16:1],2h[16:1]/4h[16:1],2h[16:1]/4h[16:1],{1}3s7[4:5],,
{16}6h[8:1]/8h[8:1],,,3h[8:1]/5h[8:1],,,12,,1h[8:1]/2h[8:1],,,4h[8:1]/6h[8:1],,,17,,
{24}1bx/7x,2,3,4,5,6,7,8,1,2bx/6x,3,4,5,6,7,8,1,2,3bx/5bx,46,57,6h[8:5]/8h[12:13],,,
{1},{48}D1/D8,A1`A7,D2`D7,A2`A6,D3`D6,A3`A5,D4`D5,A4f,,,,,{1},,,,E
Re:MASTER
- MASTER譜面を追加しました。修正等ありましたらよろしくお願いします。 -- けもがみ (2026-06-28 04:46:38)
最終更新:2026年06月28日 04:46