アットウィキロゴ

[招]Re:Unknown X

BPM 属性 COMMENT
190 招 LUNATIC X

属性:招

(190)
{4},,,{16},,A5,A4,
{1}A3h[8:13]/E4h[8:13]/B4h[8:13]/B5h[8:13]/A6h[8:13],{4},,,{16},,5,4,{1}5h[8:15],6h[8:7],
{16}6,5,4,3,4,5,6,5,4,3,4,5,6,5,4,3,4,5,6,5,4,3,4,5,6,5,4,3,4,5,6,5,
4,3,4,5,6,5,4,3,4,5,6,5,4,3,4,5,6,5,4,3,4,5,6,5,4,3,4,5,6,5,4,3,
2bx,3,4,5,6,5,4,3,2bx,3,4,5,6,5,4,3,2bx,3,4,5,6,5,4bx,3,2,3,4,5,6bx,5,4,3,6,5,4,3,
6,5,4,3,6,5,4,3,6,5,4,3,6,5,4,3,6,5,4,3,{24}6,5,4,{64}3,,,,,,
3bx,4bx,5bx,6bx,{96},,3bx,4bx,5bx,6bx,,,,3bx,4bx,5bx,6bx,,,,,,,,,

{8}3x/6x,,2h[8:1]/4,,35,2h[8:1],,34,2h[8:1]/5,,34,2h[8:1]/5,4,3,2h[8:1]/5h[8:1],,
36,,2h[8:1]/5,,34,2h[8:1],,35,46,35,24,35,{24}46,3,4,3,4,3,{8}46,,
35,,2h[8:1]/4,,34,2h[8:1],,34,2h[8:1]/5,,34,2h[8:1]/5,4,3,2h[8:1]/5h[8:1],,
34,,2h[8:1]/4,,35,2h[8:1],,35,46,3,25,3,46,{64}6bx,5bx,4bx,3bx,,,6bx,5bx,4bx,3bx,,,6bx,5bx,4bx,3bx,{8},

3x/5x,,3h[8:1]/4,5,4,3h[8:1]/5,4,5,3h[8:1]/4,5,46,3h[8:1]/5,4,4,3h[8:1]/5h[8:1],,
2/4h[4:1],,2h[8:1],5,34,2h[8:1]/5,4,3,4/5h[8:1],3,4/5h[8:1],3,{24}4/6h[8:1],3,4,3,4,3,{8}4/6h[8:1],,
35,,2h[8:1]/4,5,34,2h[8:1]/5,3,4,2h[8:1]/5,4,3,2h[8:1]/4,5,4,2h[8:1]/3,4,
35,,2h[8:1]/4,5,34,2h[8:1]/5,4,35,45,36,27,36,{48}4x/5x,,,6bx,5bx,4bx,3bx,,,6bx,5bx,4bx,{8}3bx,,

5/6h[8:1],5,47,5,47,5,47,56,4,56,7,56,47,{16}5,6,{8}47,4h[8:1]/7,
6,5,4/7h[8:1],5,6,7,56,4,{16}3/5h[16:3],,,4h[16:3],,,{8}3h[8:1],5h[8:1],4,35,6,
5h[8:1]/7,6,47,6,47,6,57,46,57,6,47,56,47,{16}5,6,{8}47,4h[8:1]/6,
5,6,4h[8:1]/7,6,5,46,57,6,{16}5h[16:3],,,4h[16:3],,,{8}3h[8:1],5h[8:1],4,35,35,

2h[8:1]/4,,{12}2,3,4,{8}5/6h[4:1],,{12}5,4,3,
{8}2/5h[4:1],,{12}2,3,4,{8}2h[4:1]/5,,{12}5,4,3,
{8}2/6h[4:1],,{12}2,3,4,{8}2h[4:1]/5,,{12}5,4,3,
{2}2h[4:1]/6h[4:1],{32}6x,5bx,4bx,3bx,6x,5bx,4bx,3bx,6x,5bx,4bx,3bx,6x,5bx,4bx,3bx,
{8}6x,35,24,3,45,3,24,3,45,3,25,34,25,{16}3,4,{8}25,3h[8:1]/4,
5,24,3h[8:1]/5,4,25,4,25,34,{16}2/5h[16:3],,,4h[16:3],,,{8}3h[8:1],5h[8:1],4,
{48}3,4bx,5bx,6bx,,3,4bx,5bx,6bx,,,,

{8}3x/6hx[4:1],,4h[8:1],5,34,2h[4:1]/5,4,5,2h[8:1]/4,5,34,2h[8:1]/5h[8:1],,3,2h[8:1]/4h[8:1],,
3/5h[8:1],,2h[8:1]/4,5,34,2h[8:1]/5,4,5,4/6h[8:1],5,4/6h[8:1],3,{24}4/7h[8:1],3,4,3,4,3,{8}4/7h[8:1],,
36,,4h[8:1]/5,6,5,4h[8:1]/6,5,6,4h[8:1]/7,6,5,4h[8:1]/6,7,6,3h[8:1]/5h[8:1],,
46,,4h[8:1]/6,7,6,4h[4:1]/5,6,7,56,4,56,7,56,{48}6,5bx,4bx,3bx,6,5bx,4bx,3bx,6,5bx,4bx,3bx,{8},

3x/5hx[8:1],4,36,5,46,5,46,3,57,6,37,5,47,{16}56,4,{8}37,4h[8:1]/6h[8:1],
,46,5h[8:1]/7,6,57,46,57,46,{16}3/5h[16:3],,,4h[16:3],,,{8}3h[8:1],5h[8:1],4,35,45,
3/6h[8:1],4,37,45,6,35,4,46,57,6,57,6,47,{16}56,4,{8}37,4h[8:1]/6,
6,35,5h[8:1]/7,6,57,46,57,46,{16}5h[16:3],,,4h[16:3],,,{8}3h[8:1],5,{32}3,4bx,5bx,6bx,3,4bx,5bx,6bx,{8},

{12}4x/7x,6,5,46,5,4,3x/6,4,5,64,5,6,7x/4,6,5,46,5,4,3x/6,4,5,64,5,6,
7x/4,6,5,46,5,4,3x/6,4,5,64,5,6,4/7x,6,5,46,5,6,{8}7x/4,{48},,
3,4bx,5bx,6bx,3,4bx,5bx,6bx,3,4bx,5bx,6bx,,,,,
{8}47,5,6,5,47,5,6,47,56,{16}7,5,{8}7,56,7h[4:1],{16}5,4,{8}3,3h[8:1]/5h[8:1],
,45,4h[8:1],5,6,5,47,6,{16}5h[8:1]/7,,,4h[8:1]/6,,,{8}3h[8:1]/5,6,{16}7,6,5,4,3,2,

{4},,6,{8}5,{24},6,5,{4}3h[2:1]/4,,6,{8},{24},6,5,{4}3h[2:1]/4,,5,{8},{24},6,5,
{4}3h[2:1]/4,,5,{8},{24},6,5,{4}3h[2:1]/4,,5,{8},{32}6,45,,,
{4}45,,6,{8},{24},6,5,{4}34,4,5,{8}6,{24}7,6,5,{8}34,3,5,,,6,,4,36,5,4,3,3,4,5,6,

3h[8:1]/6,5,4,5,3h[4:1]/6,4,5,{64}6,,,,,,5,4,{8}36,6,6,5,3h[4:1]/4,5,6,{64}6,,,,,,5,4,
{8}36,5,4,5,3h[4:1]/6,4,5,{64}6,,,,,,5h,4h,{8}3h/6,5,4,5,6,4,5,{48}6,4h[48:17]/5,,,,,
{8},6,5,4,3h[4:1]/5,6,5,4,{4}2/6bx,3/5bx,4bx/6,3bx/7,
{8}46,35,4h[4:1]/5h[4:1],,,36,,34,25,{16}3,4,3,2,3,4,3,2,3,4,3,2,3,4,

3,,{24}2,3,4,5,6,7,2,3,4,5,6,7,2,3,4,5,6,7,3h[8:1],,,
7,6,5,4,3,2,7,6,5,4,3,2,7,6,5,4,3,2,7,6,5,4,3,2,
6,5,4,3,6,5,4,3,6,5,4,3,6,5,4,3,6,5,4,3,6,5,4,3,
2,3,4,5,6,7,2,3,4,5,6,7,3,5,3,5,3,5,3,,,24,,,
3,4,5,6,3,4,5,6,3,4,5,6,3,4,5,6,3,4,5,6,3,4,5,6,
7,6,5,4,3,2,7,6,5,4,3,2,7,6,5,4,3,2,7,6,5,4,3,2,
6,5,4,3,6,5,4,3,7,6,5,4,3,2,{48}7x,6x,5x,4x,3x,2x,,,7x,6x,5x,4x,3x,2x,{8},

{16}6,3,6,3,6,3,6,3,{24}6,3,6,3,6,4,{4}5h[4:1],
{24}3,4,5,6,3,4,5,6,3,4,5,6,3,4,5,6,3,4,5,6,3,4,5,6,
5h[12:1],6x,7,5h[12:1],6x,7,5h[12:1],6x,7,5h[12:1],6x,7,5h[12:1],6x,7,5h[12:1],6x,7,4,3,2,7,6,5,
4h[12:1],3x,2,4h[12:1],3x,2,4h[12:1],3x,2,4h[12:1],3x,2,4h[12:1],3x,2,4h[12:1],3x,2,4h[12:1],3x,2,4h[12:1],3x,2,
5,6,7,2,3,4,5,6,7,2,3,4,7,6,5,4,3,2,{8},36,
{16}3h[8:1]/7,6,5,4,3h[8:1]/7,6,5,4,3h[8:1]/7,6,5,4,3h[8:1]/7,6,5,4,
{24}6,5,6,5,6,5,6,5,6,5,6,5,6,5,4,3,6,5,4,3,4,5,6,,
{8}47,36,25,,,45,,36,27,{16}4,3,4,5,6,5,4,3,4,5,6,5,4,3,

{8}2/6h[4:1],,5,,46,3h[8:1]/5,,4,3h[8:1]/5,5,4,5/6h[4:1],,4,3h[8:1]/5h[8:1],,
2/4h[4:1],,3,,45,5h[4:1]/6,,4,3h[8:3]/5,4,2,4,25,{32}3,4bx,5bx,6bx,3,4bx,5bx,6bx,3,4bx,5bx,6bx,
{8}3,,2h[8:1]/4,5,4,2h[4:1]/5,4,5,2h[8:1]/4,5,36,2h[4:1]/5,5,6,2h[8:1]/6,,
3/6h[4:1],,4h[8:1],7,56,4h[4:1]/7,6,7,45,36,27,36,45,
{24},4,3,{20}4,3,4,3,4,3,4,3,4,3,4,3,4,3,4,3,4,3,4,3,4,3,4,3,4,
{8}3h[4:1],,{32}4,5,6,3,4,5,6,2,3,4,5,6,2,3,4,5,6,7,,,,,,,{2},

1b,{4}A3/B4/B5/A6`E6`E4,{48}8,7,6,5,4,3,2,1,8,7,6,5,
{24}1,5,1,5,1,5,{48}1,2,3,4,5,6,7,8,1,2,3,4,,,{1}5hx[3:1]/8hx[3:1],,,,E

  • 宴譜面を追加しました。修正等ありましたらよろしくお願いします。 -- けもがみ (2026-06-27 00:48:23)
名前:
コメント:

タグ:

+ タグ編集
  • タグ:
最終更新:2026年06月27日 00:48