アットウィキロゴ

私たちは、花になる

アーティスト イロドリミドリ|HaNaMiNa|S.S.L.

BPM BASIC ADVANCED EXPERT MASTER Re:MASTER
168 2 7 10+ 13+ -

EXPERT MASTER Re:MASTER
譜面制作者 Luxizhel Get Our MIRAI!!!!!!!!!!!!!! -

BASIC


ADVANCED


EXPERT


MASTER

(168)
{2},5,
{1}4pp4qq4[4:7]/5,
{1},
{1}5pp4>6[2:3],
{1},
{1}1^7v5[4:5]*^3v5^6[2:3],
{1},
{1}6pp4[1:1]/7pp3[1:1],
{2},35,

{1}3>5[1:1]/4h[1:1],
{2},57,
{1}6h[1:1]/8>5p8[4:5],
{2},5,
{1}3-7-2-5[2:3]/7-3-1-5[2:3],
{1},
{2}3h[4:3]/7h[4:3],{4},{8},B3/B6/E3/E7,
{2},{8}4,4,{4}56,

{4}8^5[8:3],{8}B6,3h[4:1],,,{4}34,
{4}2-5[8:1]/4,2,{8}6,6,{4}5,
{4}7^2[8:3],{8}E5,3h[4:1],,,{4}34,
{4}3-5[8:1],6-2[8:1],1-7[8:1],1,
{4}6^3[8:3],{8}A1,8h[4:1],,,{4}38,
{4}8^3[8:3],{8}B2,7h[4:1],,,{4}37,
{1}4>6[2:1]/8h[4:3],
{4}56,34,{2}25,

{8}2/8<4[8:3],,,4V68[8:3],,,8,1,
{8}2>6[8:3],,,6V42[8:3],,,1,8,
{8}7<2[8:3],,,2>7[8:3],,,8,1,
{4}2,38,47,25,
{4}1^4[4:1],4^7[4:1],7^2[4:1],2^5[4:1],
{4}5<1[4:1],1>5[4:1],5<1[4:1],1qq7qq5qq3qq1[4:10],
{1}4h[4:10],
{1},
{1},
{2}2h[2:1]/6h[2:1],{4},B5,

{16}1b,2,3,4,8,7,6,5,1,2,3,4,5,6,7,8,
{16}1,2,3,4,8,7,6,5,1,2,3,4,5,6,7,8,
{2}1bxh[4:7],{4},{8},A5/E5f/E6,
{2},{4}3-7[8:1],3,
{16}8b,7,6,5,1,2,3,4,8,7,6,5,4,3,2,1,
{16}8,7,6,5,1,2,3,4,8,7,6,5,4,3,2,1,
{8}8-4[8:1],2-5[8:1],8,2,,5xh[4:1]/6p4[8:3],,6,
{4},{8},3bx/4bx,1b/2b,7b/8b,{4}5b/6b,

{8}45,{16}3,4,{8}3,{16}6,5,{8}6,{16}3,4,{8}3,{16}6,5,
{8}6,{16}2,4,{8}3,{16}7,5,{8}6,{16}2,4,{8}3,{16}7,5,
{8}6,{16}1,4,{8}3,{16}8,5,{8}6,1,2,34,
{8}56,78,{4}2-8[8:1]/6-4[8:1],2b-5[8:1]/6b-1[8:1],2b/6b,
{8}15,6,67,7,78,8,18,1,
{16}2b,3,4,5,6,7,8,1,{24}2bx,3x,4x,5x,6x,7x,8x,1x,2x,3x,4x,5x,
{1}6x>7[4:5],
{2},{4},A5/A6/D6/E6,

{8}1-4[8:1],1,,6-1[8:1],6,,3-6[8:1],3,
{8},8h[4:1],,5,{4}5-1[8:1],7,
{4}28,7,4qq1[4:3]/6,5,
{4}6,7,8,2x/7x,
{8}8-5[8:1],8,,3-8[8:1],3,,6-3[8:1],6,
{8},1h[4:1],,4,{4}4-8[8:1],2,
{4}17,37,4/6<4[2:1],56,
{2},{4}5b/6b,7-3[8:1]/8-4[8:1],

{4}78,{8}1,1,78,6,35,2,
{8}18,3,28,6,17,3,{4}1-5[8:1]/2-6[8:1],
{4}12,{8}8,8,12,3,46,7,
{8}18,6,17,3,28,6,{4}5b/7b,
{32}4/8x-2[8:1],7x,{16}6x,{8},{4}38,{32}4/8-2[8:1],7x,{16}6x,{8},{4}38,
{32}4/8-2[8:1],7x,{16}6x,{8},{4}38,{32}4/8-2[8:1],7x,{16}6x,{8},{4}38,
{4}4b/7b,{8}48,26,18,27,{4}36,
{16}3,5,4,6,3,5,4,6,2,5,4,7,{4}1b,

{4}4,{8}35,35,{4},{8}24,24,
{8},3,,{16}3,4,3,,,4h[16:3],,,{8}5,
{4},{8}46,46,{4},{8}57,57,
{8},6,,{16}6,5,6,,,5h[16:3],,,{8}4,
{4},{8}34,34,{4},{8}24,24,
{8},2h[4:1]/3h[4:1],,,{16}34,,,45,,,{8}56,
{4},{8}56,56,,67,{4}67,
{8},5,,{16}6,5,6,,,5/6h[16:17],,,{8},

{2}7bh[4:7],{4},{8},4h[8:15],
{2},{4},{8},6h[8:15],
{2},{4},{8},3h[8:7],
{1},

{8}3^5q2[2:3]/6^1q7[2:3],36,{4},{2},
{1},
{8}8V27-3-6-4[2:3],8h[8:13],{4},{2},
{1},
{8}1V38-4-7-5[2:3],1h[8:13],{4},{2},
{1},
{8}6V85-1-4-2[2:3],6h[8:13],{4},{2},
{1},

{4}B3/B7,B2/B6,B4/B8/E4/E8,B1/B5/E2/E6,
{4}A4/A8/B3/B7/E4/E8,A1/A5/B2/B6/E2/E6,A3/A7/B4/B8/E4/E8,A2/A6/B1/B5/E2/E6,
{4}B3/B7,B2/B6,B4/B8/E4/E8,B1/B5/E2/E6,
{4}A4/A8/B3/B7/E4/E8,A1/A5/B2/B6/E2/E6,A3/A7/B4/B8/E4/E8,A2/A6/B1/B5/E2/E6,
{1}A3h[1:3]/A7h[1:3]/B7h[1:3]/D4h[1:3]/E4h[1:3]/E8h[1:3],
{1},
{1},
{2},{4},36,

{16}1b,2,3,4,8,7,6,5,3,2,1,8,5,6,7,8,
{16}2,3,4,5,8,7,6,5,1,2,3,4,5,6,7,8,
{16}1,2,3,4,2,3,4,5,3,4,5,6,7,8,{8}1h[8:7],
{2},{4}6-4[8:1],6,
{16}2b,3,4,5,1,8,7,6,2,3,4,5,6,7,8,1,
{16}2,3,4,5,1,8,7,6,1,2,3,4,5,6,7,8,
{16}1,2,3,4,2,3,4,5,3,4,{8}5bx-2V86-3[2:1],,5,
{2},{8}4w8[8:1],35,{4}4,

{8}18,{16}2,1,{8}2,{16}7,8,{8}7,{16}2,1,{8}2,{16}7,8,
{8}7,{16}3,1,{8}2,{16}6,8,{8}7,{16}3,1,{8}2,{16}6,8,
{8}7,{16}4,1,{8}2,{16}5,8,{8}7,4,3,12,
{8}78,56,{4}3q7[8:1]/4^7[8:1],3^8[8:1]/4p8[8:1],34,
{8}7x/8x,7,56,5,45,4,34,3,
{16}1b/2b,8,7,6,5,4,3,2,
{24}1b,2,3,4,5,6,7,8,1,2,3,4,
{1}1bxh[4:5]/5bxh[4:5],
{2},{24}B3,B4,B5,{8}B6,{4}
E

Re:MASTER


名前:
コメント:

タグ:

+ タグ編集
  • タグ:
最終更新:2026年07月04日 21:38