BASIC
ADVANCED
EXPERT
MASTER
(190)
{8}46,3,24,5,{4}46,{8}35,35,
{8},2b/6,{4}2b/6,{12}2,4,3,7,5,6,
{12}2,4,3,7,5,6,{8}1b,{16}2x/7x,3x/6x,{8}4x/5x,3bx/6bx,
{2},{8}45,45,{4}3>7[8:3],
{2}5b,{8},6<2[8:3],,4b,
{2},{4},3>7[8:3],
{2}5b,{8},6<2[8:3],,4b,
{2},{8},3x/4x,{4}3>7[8:3]/4h[4:1],
{2},{8},6,,57,
{4}5w1[8:1]/7,{8}5,,,3bx/7bx,,,
{8}6h[4:1]/8h[4:1],,,2h[4:1]/4h[4:1],,,1h[4:1]/3h[4:1],,
{8},5h[4:1]/7h[4:1],,,{4}8b,2x/6x,
{4}7-1[8:1],57,2-8[8:1],24,
{4}6-8[8:1],56,4,35,
{4}2-8[8:1],24,7-1[8:1],57,
{4}3-1[8:1],34,5,46,
{8}7^4[8:1],,3,2-6[8:1],,7,{4}8-4[8:1],
{8},1,{4}1-5[8:1]/3-7[8:1],{2},
{8}4h[4:1]/6h[4:1],,,1h[4:1]/8h[4:1],,,35,{16}6,4,
{8}6,35,{4}35,{8}26,26,,37,
{4}3b/7b,{8}2,2,{4}4,{8}12,12,
{8},8-4[8:1],,3-1[8:1],,5-7[8:1],,2,
{4}2,{8}6,6,{4}5,{8}78,78,
{8},1^3[8:1],,8^6[8:1],,5p3[2:1],,7h[8:5],
{2},{4},{8}28,28,
{8},7,{4}7h[4:1],5,{8}2,2h[4:1],
{8},4,{4}4,12,{8}7,7,
{4}8,56,{2}3q8[4:1]/4^7[4:1],
{4},7h[2:5],{8}5,5,,6,
{4}6,5,{8}8,8qq5[2:1],{4},
{2},{4},6x,
{4}78,56,34,12,
{4}1/2h[4:11],1p4[4:1],{2},
{4}4,{8}3,3,{2}4>8[4:1],
{4},5-1[8:1],,8-4[8:1],
{4}3,1w5[4:1],{2},
{2}4h[4:1]/6h[4:1],{8}7,7,5,8-5[8:1],
{8},8-4[8:1],,8,,35,{4}35,
{2}2h[4:1]/6h[4:1],{8}8,1pp3[8:1],,1v7[8:1],
{8},1-5[8:1],,1,,46,{4}46,
{8}2x,2,1,3,8,1,7x,7,
{8}8,6,1,8,4x,4,6x,5,
{8}7x,7,8,6,1,8,2x,2,
{8}1,3,{4}8b-4[8:1],1h[4:1],3,
{4}2b/4b,{16}3,5,3,5,3,5,3,5,3,5,3,5,
{16}4,6,4,6,4,6,4,6,4-1[8:1],6,4,6,{4}4<3[2:3],
{1}Cf,
{1},
{4}Cf/E6,E7,E8,{8}E1,B4/B5/E5f,
{4}E2,E3,E4,E5,
{4}Cf/E6,E7,E8,{8}E1,B5/B6/E6f,
{4}E2,E3,E4,E5,
{4}5,5,4,{8}35,35,
{8},2,1b/3b,,7,6b/8b,,1,
{8}1b-5[8:1],,6,7b-2[8:1],,4,3b-6[8:1],,
{8}1,8b-4[8:1],,4,{4}3b,26,
{4}7h[4:1],{8}8,8,,56,,34,
{8},2,2,1,,78,{4}7-3[8:1]/8h[4:1],
{4},1h[4:1]/2-6[8:1],,5h[4:1]/7^2[8:1],
{4},4-1[8:1]*-7[8:1],,2x/6^1[8:1],
{8}4,3-8[8:1],,5,6-1[8:1],,4,3^8[8:1],
{8},4,{4}5-8[8:1],5-2[8:1],5-1[8:1],
{4}5,{8}2,34,,7,56,,
{8}47,56,56,7,18,2,{4}3>7[2:1]/4,
{2}E5f,{4},{8},{16}6,6,
{8}5,,,45,,,{4}6<2[2:1],
{2}E5f,{4},{8},{16}3,3,
{8}4,,,45,,,{4}3>7[2:1],
{2}E5f,{4},{8},{16}6,6,
{8}5,,,45,,,{4}6,
{8}6h[8:3],,,8h[8:3],,,{4}1,
{4}1,28,37,4-1[4:1]/6,
{2}5h[2:1],{4},24,
{4}45,5-1[8:1]/7,6h[4:1],{8}8,6,
{4}57,45,2/4-8[8:1],3h[4:1],
{8}1,3,{4}24,45,57,
{4}8<4[4:1],4>8[4:1],8<4[4:1],4>8[4:1],
{4}8,4,3,2-5-1[2:1],
{8}5,6,6,,7-4-8[2:1],,4,3,
{4}3,2-5[4:1],{8}5w1[4:1]b,6,{4},
{2},{8}17,1-5[8:1]/7,,1b/8h[8:31],
{2},{4},{8},{16}E8,E7,
{2}E6,{4},{8},{16}E2,E3,
{4}E4,6,5,{8}4,4,
{8},5,,4,{4}4,{8}3,2xh[2:3],
{2},{4},{8}5,6xh[2:1],
{2},{8},1^4[8:1]b*^6[8:1]b/7,,1b,
{8},2/8-3[8:1]b*-5[8:1]b,,8b,,1v4[8:1]b*v6[8:1]b/7,,1b,
{8},28,{4}28,{8}37,3-8[8:1]/7-4[8:1],,3b/7b,
{8},15,{4}1/5<1[4:1],1<5[4:1],{8}3,3,
{8},1-5[8:1],,1/7-3[8:1],,4^1[8:1]/7,,4b/6,
{8},{16}2,8,2,8,2,8,3,7,3,7,{8}4,3,
{8}24,2-7[8:1]/4,,2/6-2[8:1],,5-1[8:1]*-2[8:1]/6,,5b,
{8},8,8,2x/7xV53[4:1],,3V17[4:1],,7V53[4:1],
{8},3,,7,,2b/6b,,7-5[8:1]/8-4[8:1],
{8},78,,1-5[8:1]/2-4[8:1],,12,,7-5[8:1]/8-4[8:1],
{8},78,,2,{16}2b/4b,,,5b/7b,,,{8}1b/8b,
{8},34,{4}34,8,6-4[8:1],
{4}3,{8}2-5[8:1],5-1[8:1],,7,,6<3[8:5],
{8},5,{4}5,4,5,
{8}34,3-6[8:1]/4,,5^8[8:1],,4^1[8:1]/5,,4/7h[4:1],
{8},8,{4}8,56,3/4^7[8:1],
{4}2,{8}1-5[8:1],5-2[8:1],,6<4[4:3],,1xh[8:13],
{1},
{2},{4},{8},{16}56,4,
{2}3h[1:1],4,
{4}4,{8}25,25,,{16}3,4,3,4,3,4,
{4}2bh[4:5],5-1[8:1],5,8-4[8:1],
{4}8,5-8[8:1],3h[4:1]/5,1-5[8:1],
{4}1/4h[4:3],6-8[8:1],6,7-3[8:1],
{4}5h[4:3]/7,2^7[4:1],{2}2,
{4}4/6h[2:1],4-1[8:1],4,7h[4:3]/8-4[8:1],
{4}8,5-3[8:1],5,2^5[8:1],
{4}A1h[8:15]/A8h[8:15]/D1fh[8:15],{8}4,4,,6,6,,
{8}4,5,5,,4,3-7[8:1],,3b,
E
Re:MASTER
最終更新:2026年07月05日 13:08