アットウィキロゴ

色彩過剰のダイアリーミュージック

アーティスト イロドリミドリ

BPM BASIC ADVANCED EXPERT MASTER Re:MASTER
136 5 8 12+ 14 -

EXPERT MASTER Re:MASTER
譜面制作者 Jack ロシェ@ペンギン -

BASIC


ADVANCED


EXPERT


MASTER

(136){1},{8}2/4-1[8:1],2h[4:1]/4,{4},{8}5-8[8:1]/7,5/7h[4:1],{4},{8}2/4-1[8:1],2h[4:1]/4,{4},{8}3/7,3/7,{24}6,,6,{8}4,{8}5-8[8:1]/7,5/7h[4:1],{4},{8}2/4-1[8:1],2h[4:1]/4,{4},{8}5-8[8:1]/7,5/7h[4:1],{4},{8}2/6,2/6,{24}3,,3,{8}5,{8}7h[8:1],6,{24}4,,4,{8}5,2h[8:1],3,{24}5,,5,{8}4,{8}8h[8:1],6,{24}4,,4,{8}5,1h[8:1],3,{24}5,,5,{8}4,{24}8,,8,5,,5,{8}7,3/5,{24}1,,1,4,,4,{8}2,4/6,{24}8,,8,5,,5,7,,7-4-8[24:7],,,4h[12:5],{2},{8}1bx/7bx,{24}6,,6,5,,5,,,4/7h[24:4],{8},5,{24}8,,5,7,,4,{8}6,5,{24}4/5,,4/5,,,2h[12:2],{8},{24}4,,3,{8}5,B3/B4/E4,{24}7,,7,5,,5,6,,6,3,,3,4,,4,2,,2,{8}1,1/2,{8}7b-4[8:1]b/8b-4[8:1]b,1,7/8,{24},,3x/4x,,,6,{8}5,{24}1bx/7bx,,1bx/7bx,{8},

{24}2/5,,3,4,,2/5,{16},3bV51[16:3]b,,,{8}6bx,,A7/A8/D8,{8}Ch[4:1],,8<5[8:1],,1,2,{24}3x,,3x,{8},{24}4/7,,6,5,,4h[12:8]/7,{16},6,,,5,,,3,,,{8}2-5[8:1],1,28,,5,5/6,4/7,{8}7bx/8bx,{16}7bxh[4:3]/8bx,,,5,5,,6,6,,8,8,,{8}1,7/8,5/6,3/4,1x/2x,1x/2x,{16}3/4,2b/5b,,,{8}2bx/1bx,{16}2bxh[4:3]/1bx,,,4,4,,3,3,,1,1,,{8}8w4[8:1],,8x,,{16}1,8,7,6,4/5,,1/E6,,,E4/8,,,2/E7,,,E3/7,,,{2}1b/B5h[8:7],{4},{8},

(181){4}1,2,3,4,{8}1bx/7bx,8,8,8,{16}7h[16:3],,,6h[16:3],,,5,,2h[16:3],,,3h[16:3],,,4,,5/6,,4bx/7bx,,{8},1,1,1,{16}2h[16:3],,,3h[16:3],,,4,,7h[16:3],,,6h[16:3],,,5,,4/3,,5bx/2bx,,{8},8,8,8,4/7,{16}6,5,,5,6,,5/2,,3,4,,4,3,,{8}1bx/2bx,7bx/8bx,6-2[8:1]/5-1[8:1],,,,3/8,{24}7,6,5,{8}4x/2x,,{16}1,8,1,8,1,8,1,8,{32}1x,2x,3x,4x,5x,6x,7x,8x,{64}A1,D2,A2,D3,A3,D4,A4,D5,A5,,,,,,,,{16}8x,,8,,8,1,8,,2/8,,2/8,,8,3,8,,4/8,,4/8,,8,,1x/8x,,8,,8,7,8,,6/8,,6/8,,8,5,8,,4/8,,4/8,,1x/8x,,8,,8,2,8,,3/8,,3/8,,8,4,8,,5/8,,5/8,,8,,1x/8x,,8,,
8,6,8,,5/8,,5/8,,{12}4b,4bx,4bx,7b,7bx,7bx,{8}5,6,4x/7x,8,1/2,{16}3,4,3,,6,5,6,,1,8,1,,5x/7x,,4/5,,3,4,3,,2/5,,6,5,6,,4/7,,3,4,3,,1x/2x,,7/8,,6,5,6,,{8}4/6,3/5,2/4,1/3,2/8,7/1,6/8,2x/7x,{16}6,5,6,5,6,5,7,,1,8,1,8,1,8,2,,1,1,1,1,1,1,1,1,1-5[8:1],1,1,1,1,,{2},

{16}4bx/6bx,,,1/7,,,,,{48}8x,B8,,{16},,{48}1x,B1,,{16},,{48}7x,B7,,{16},,{48}2x,B2,,{16},,{48}6x,B6,,{16},,{48}3x,B3,,{16},,5x,,4/5,,,,4bx/6bx,,,2/8,,,,,{48}1x,B1,,{16},,{48}8x,B8,,{16},,{48}2x,B2,,{16},,{48}7x,B7,,{16},,{48}3x,B3,,{16},,{48}6x,B6,,{8},E5/B4/B5,,,{16}2x/7x,,1,8,2,7,1,8,2,1,2,8,2,7,2,6,2,5,3,6,4,7,5h[4:1],,8x,,8x,,6,5,4,3,2,1,8,7,6,5,4/3,2,1,8,7,6,{4}5-7[8:1]/4-7[8:1],4x-2[8:1]/5x-2[8:1],5x-8[8:1]/4x-1[8:1],4x/5x,{8}2,2,

{16}3/5h[16:3],,,4,,,5/6,,5/6,,7,,7,,6/4h[16:3],,,5,,,4/3,,4/3,,2,,2,,3/5h[16:3],,,4h[16:3],,,8,,8,,7,,7,,6/4h[16:3],,,5h[16:3],,,1,,1,,
2/3,,2,3,2,3,2,3,2,3,2,3,1b,,6/7,,7,6,7,6,7,6,7,6,7,6,8b,,{12}E7,E6,E5,E4,E3,E2,E1,E8,E7,{16}3,3,,5,5,,7,7,,5-1[8:1],5,,{8}E5/E6f,,2/8,3/7,4/6,5,{16}6,6,,4,4,,2,2,,4-8[8:1],4,,{8}E5/E4f,,7/1,6/2,5/3,4,{16}5h[8:1]/6h[8:1],,,4h[8:1]/7h[8:1],,,1h[8:1]/2h[8:1],,,3h[8:1]/8h[8:1],,,{8}2-8[8:1],3-7[8:1],2,3,,{24}E5,D5,,{8},{12}7,8,1,2,3,4,

(136){24}5x/7x,,,6,,5,,,5,{8}6h[8:1],5,3h[8:1],4,6,4/5,{24}5,,4,,,4,{8}6h[1448:1405],(181)5xqq6<4[8:7],,,,,,,,,,,,(136){24}2x/4x,,,3,,4,,,4,{8}3h[8:1],4,6h[8:1],5,3,4/5,{24}4,,5,,,5,{8}3h[1448:1405],(181)4xpp3>5[8:7],,,,,,,,,,,,(136){24}5x/7x,,,6,,5,,,5,{8}6h[8:1],5,3h[8:1],4,6,5/4,{24}5,,4,,,4,{8}6h[4:1],E6,E8,E2,E4,{16}5bx/7bx,6,6,,5,5,,4,4,,3,3,3,3,3,3,3,,1bx/2bx,,,,{24}8,1,8,1,8,1,7,2,7,2,7,2,6,3,6,3,6,3,5x,,,{8}2h[4:1],E4/B4,6h[4:1],E6/B5,3h[4:1],E4/B4/B3,7h[4:1],E6/B5/B6,1x-4[8:1],1x-6[8:1],1x,1x,{24}2x,3,4,8,7,6,3,,3,5,,5,{4}8bh[2:1],,5>2[8:1]b*<8[8:1]b,5x,

{8}1b<6[8:1],3/7,1>4[8:1]/2,3,1<6[8:1]/5,7,1/2,4,5>2[8:1],3/7,5<8[8:1]/6,8,1/5>2[8:1],3,5/6,8,1x/6x,,{24}6,,5,,,5,{8}7h[8:1],5h[8:1],4h[8:1],2h[8:1],1<3[4:1],4,3,2,1w5[8:1],{16},1x,{8},,6h[4:1],5,3h[4:1],4,7h[4:1],5,2h[4:1],4,8h[4:1],B5,1h[4:1],B4,8h[4:1],E5,1,2/8,5b-1[8:1]/6b-1[8:1],3/8,5/6,{24},,2/8b-4[8:1],,,,5,,,{8}2>5[8:1],,1b-4[8:1]*-6[8:1]/2,8,1,{24},,5bw1[6:1]/7,,,,2/8,,,{8},,3x/7x,,{24}1,2,3,8,7,6,2,3,4,7,6,5,1,2,3,4x/6x,,,{8}8b/B3/B4/E4,1b/B6/B5/E6,2b/8b,{24}7,,7h[12:2],{8},5,3/4-8[8:1]b,5/6,4x/E3f/B2/B3,,{24}7,,7,5,,5,4,,4,{8}2h[8:1],8h[8:1],5,{24}6x,4,6,4,6,4,7x,3,7,3,7,3,{8}8b-3[8:1]*-5[8:1],{24},,8x,{8},,4,1/2>5[8:1],3,2/8-4[8:1],7,8/6,5,4>1[8:1]/6,5,4/8-4[8:1],7,6-2[8:1]/8,5,4/6,3,1/2,3b-8[8:1]/4b-8[8:1],1/6,3/4,{24},,1b-5[8:1]/7,,,,4,,,{8}7<4[8:1],,8b-3[8:1]*-5[8:1]/7,1,8,{24},,2/4bw8[6:1],,,,3/5,,,{4},Ch[24:11],,,1/8,{8}5/7,4/5,{24}1/3,,1/3-7[6:1]*<7[6:1],,,2b/8b,{4},,

{8}8x/B3/E4f,8,{24}8,,2,8,,3,8,,4,{8}8,{8}1x/B6/E6f,1,{24}1,,7,1,,6,1,,,{8}8x/B3/E4f,8,{24}8,,2,8,,3,8,,4,{8}8,1>4[8:1],4<7[8:1]b,B6f,,,{8}8x/E3f/B2/B3,8,{24}8,,5,8,,4,8,,3,{8}8,1x/E7f/B7/B6,1,{24}1,,4,1,,5,{8}1,{8}8x/E3f/B2/B3,8,{24}8,,5,8,,4,8,,3,{8}8,1x/6x,3/5,7<4[8:1]/8>3[8:1],,,,1b/8b,{2},{24},,,2-6[12:1]/5,,3,4,,2/5,,,{48}D1,A8,{8}D8,5,{24}7-3[12:1],,6,5,,7/4,,,{48}D1,A1,{8}D2,4,{24}2-6[12:1],,3,4,,2/5,,,{48}D1,A8,{8}D8,{16}5,5,,4,4,,5/7,5/7,,2/4,2/4,,,6/7,5/8,,,,3/2,4/1,,,,,A8/D8,,{24},,,2b,,8,4,,6,5/7,,,8b,,2,6,,1/8,E

Re:MASTER


  • MASTER譜面を追加しました。修正等ありましたらよろしくお願いします。 -- Sugar (2026-07-03 22:42:57)
  • MASTER譜面のノーツの配置ミス、SLIDEの速度の修正を行いました。 -- けもがみ (2026-07-04 08:38:49)
名前:
コメント:

タグ:

+ タグ編集
  • タグ:
最終更新:2026年07月07日 07:54