BASIC
ADVANCED
EXPERT
MASTER
(178)
{4}E4,E5,E6,7-5[8:1]/8-4[8:1],
{4}78,1-5[8:1]/2-4[8:1],12,78,
{8}7,6,45,3,{4}1/2^5[4:1],5^8[4:1],
{4}8^3[4:1],3^6[4:1],6,8,
{8}17,6,25,3,{4}4/8-2[8:1],{8}3-5[8:1],3,
{8}1-7[8:1],1,2-6[8:1],2,{4}8,{8}5qq3[4:1]*pp7[4:1],5,
{2},{4}46,{8}3^8[8:1],3,
{4}4,6^1[8:1],5,3-8[8:1],
{4}4,15,3b/7b,1-5[8:1]/2-4[8:1],
{4}12,7-5[8:1]/8-4[8:1],78,12,
{8}2,3,45,6,{4}7^4[4:1]/8,4^1[4:1],
{4}1^6[4:1],6^3[4:1],3,1,
{8}28,28,37,37,{4}46,{8}34,34,
{4}25,{8}78,78,{4}1/6-8[8:1],{8}2-4[8:1],2,
{8}1-5[8:1],1,3,3,{4}46,57,
{16}7h[16:3],,,5,{8}7,18,{16}2h[16:3],,,4,{8}2,18,
{8}18,27,{4}3-8[8:1]/6-1[8:1],,2x/7x,
{16}6-8[8:1],,,5,{8}6x,4,{16}6-8[8:1],,,5,{8}6x,4,
{16}6-8[8:1],,,5,{8}6x,4,4,13,{4}13,
{16}3-1[8:1],,,4,{8}3x,5,{16}3-1[8:1],,,4,{8}3x,5,
{16}3-1[8:1],,,4,{8}3x,5,6,1x/7x,{4}1x/7x,
{16}2-4[8:1],,,1,{8}2x,8,{16}2-4[8:1],,,1,{8}2x,8,
{16}2-4[8:1],,,1,{8}2x,8,8,57,{4}57,
{16}7^4[8:1],,,8,{8}7,2,{16}2h[16:3],,,1,{8}2,3q6[2:1]/8,
{2}38,{8},8,8,8,
{4}57,57,56,5p7[4:3]b/6,
{4}6,6,6,6,
{4}5/8pp3[4:5],5,4,4,
{4}4,4,4,24,
{4}2/4v6^5-1[4:5],2,2,2,
{4}2,2,2,2,
{4}3/8h[4:1],{8}4,7,{4}5,56,
{2}5x/6x,{4}45,18,
{4}18,{8}7-5[8:1],7,8-4[8:1],8,{4}5,
{8}5-1[8:1],5,4-2[8:1],4,{4}8,{8}7-5[8:1],7,
{8}1-3[8:1],1,{4}8-4[8:1],{8}3,3,{4}34,
{4}2x/5x,3V15[4:1],{8}6,7,{4}8,
{4}1^8-4[4:1]/5,{8}4,3,2,1,{4}4/8^1-5[4:1],
{8}5,6,7,8,{4}15,3,
{4}2-6[8:1]/4,{8}8,8,{4}5/7-3[8:1],1,
{16}24,,,57,,,{8}18,{2}1-4[8:1]/8-5[8:1],
{8}6xh[8:3],,,5,{2}56,
{8}5h[8:3]/7,,,6,{2}56,
{8}3h[8:3]/5,,,4,{2}34,
{8}2/4h[8:3],,,3,{2}34,
{1}E4h[1:2],
{1}E6h[1:1],
{1}E5,
{4}24,57,18,1-6[8:1]/8-6[8:1],
{4}1b-3[8:1]/8b-3[8:1],1-6[8:1]/8-6[8:1],1-3[8:1]/8-3[8:1],18,
{8}2,1,7,6,{4}3-1[8:1]/5,4-8[8:1],
{4}2^7[8:1],6-1[8:1],8,{8}28,28,
{4}3-8[8:1]/7-4[8:1],37,1x/5x,{8}6<3[4:1],6,
{4}3>6[4:1],4,5,{8}46,46,
{2}4qq5[4:1]/6pp5[4:1],{4},{8}46,37,
{4}8>4[4:1]b,4<8[4:1]b,8>4[4:1]b,4<8[4:1]b,
{4}8,4,27,1-3[8:1]/8-3[8:1],
{4}1-6[8:1]/8-6[8:1],1-3[8:1]/8-3[8:1],1-6[8:1]/8-6[8:1],18,
{8}7,8,2,4,{4}5/6^1[8:1],4^1[8:1],
{4}8-4[8:1],2-5-1[4:1],{2}4x,
{8}1bx/2bx,1bx/2bx,3bx/8bx,3bx/8bx,{4}4bx/7bx,{8}6v1[8:1],5,
{4}6,{8}2V46[8:1],1,{4}2,{8}8v6[8:1],8v2[8:1],
{2}8-4[8:1],{4}3^8[8:1]/5^8[8:1],35,
{16}7h[16:3],,,8,{8}7,16,{16}2h[16:3],,,1,{8}2,38,
{8}57,6,24,3,{4}45,B1/B8f/D2/D8/E2/E8,
{16}2h[16:3],,,3h[16:3],,,4h[16:3],,,5h[16:3],,,{4}6,
{8}5x/6x,{16}6,5,{8}6,57,{4}57,68,
{16}7h[16:3],,,6h[16:3],,,5h[16:3],,,4h[16:3],,,{4}3,
{8}3x/4x,{16}3,4,{8}3,12,{16}12,,,8,{4}18,
{16}2,3,4,5,1,8,7,6,A2,E3,E4,A4,A1,E1,E8,A7,
{16}3h[16:3],,,1h[16:3],,,{8}7,{16}7h[16:3],,,5h[16:3],,,{8}3,
{8}3,{16}3,5,{8}3,{16}3,4,{8}3,{16}3,2,3q5^8[4:3],2,3,2,
{1}3bx,
{1}2bh[1:1]/6b,
{2}4h[1:1],E4,
{2}5h[1:1],E5,
{2}7h[1:1],B6/E6,
{2}5>1[4:3],B5/E5,
{2}4<8[4:3],B6/B7,
{2}1pp1[2:1],4xpp4[2:1],
{2}1b,{4},4^2[8:1]/5-1[8:1],
{4}4b-8[8:1]/5b^7[8:1],4^2[8:1]/5-1[8:1],4-8[8:1]/5^7[8:1],45,
{8}1,2,34,5,{4}5^2[8:1]/6,{8}7v4[8:1],7,
{4}1-6[8:1],4<1[4:1],E6f,{8}3,3,
{4}1-6[8:1]/4-1[8:1],14,2b/7b,{8}3^5[8:1]b,8-3[8:1],
{8}3V16[4:1],8,5x,5x,{4}5x,5qq3[8:1]*pp7[8:1]/6,
{4}5x,{8}4x/6x,4x/6x,{4}4x/6x,{8}3,2,
{4}1-6[8:1],7-4[8:1],5-2[8:1],3-8[8:1],
{4}1,2h[4:1],{16}1,8,7,6,{4}4-8[8:1]/5^7[8:1],
{4}4b^2[8:1]/5b-1[8:1],4-8[8:1]/5^7[8:1],4^2[8:1]/5-1[8:1],45,
{8}8,7,{4}56,{16}5h[8:1]/7bh[8:1],,,2bh[8:1]/8h[8:1],,,{8}3/4b,
{4}3-6[8:1]/4b,4<2[4:1],8,3,
{8}1b/2b,3b/8b,4b/7b,5b/6b,{4}3pp4[4:1]*V14[4:1]/8,3,
{4},3w7[8:1]b,3,{8}1pp3[8:1],1qq7[8:1],
{2}1-5[8:1],{4}3-8[8:1]/7-4[8:1],37,
{16}2h[16:3],,,1,{8}2,38,{16}7h[16:3],,,8,{8}7^5[8:1],1^3[8:1],
{8}7-3[8:1],1-5[8:1],7,1,{4}8x,2b/6b,
{4}3-6[8:1],7-2[8:1],{8}4,4,13,8,
{8}57,6,35,4,{4}2^5[8:1],{8}7,8,
{4}1^6[8:1],{8}5,3,1,{16}7,8,{8}7,16,
{8}2,3,45,6,{16}1-5[8:1]/7,,,8,{4}1,
{4}6^1[8:1],{8}5,4,{4}3^6[8:1],{8}2,1,
{8}8,17,{4}2-7[8:1]/6-3[8:1],26,15,
{16}3h[16:3],,,1,{8}3,45,{16}6h[16:3],,,8,{8}6,45,
{8}34,12,78,56,{4}4x-1[8:1]/8x-5[8:1],C,
E
Re:MASTER
最終更新:2026年07月05日 17:14