アットウィキロゴ

イレギュラーマン

アーティスト マサラダ

BPM BASIC ADVANCED EXPERT MASTER Re:MASTER
201 5 7+ 11 13+ -

EXPERT MASTER Re:MASTER
譜面制作者 サファ太 はっぴー -

BASIC


ADVANCED


EXPERT


MASTER

(201)
{1}1b,
{4}E4,E4,{8}5,5,5,5x,
{16}6,4,6,4,6,4,6,4,6,4,6,4,{4}B7/B8/E8f,

{4}3x^8[8:1],5v2[8:1],4v7[8:1],6^1[8:1],
{4}3^8[8:1],5v2[8:1],4v7[8:1],6^1[8:1],
{4}3^8[8:1],5v2[8:1],4v7[8:1],6,
{8}2,2,{4}35,{8}7,7,{4}4/6x^1[8:1],
{4}3x^8[8:1],5v2[8:1],4v7[8:1],6^1[8:1],
{4}3^8[8:1],5v2[8:1],4v7[8:1],6^1[8:1],
{4}3^8[8:1],5,2,{8}8x-4[8:1],1x-3[8:1],
{8}8x-6[8:1],1x-5[8:1],8x-4[8:1],1x,{4}8x,2bx/6bx,

{8}3x,3xqq6[4:3],,6,{4}6,{8}7,7,
{8},8,{4}8h[4:1],{8}5,4,{4}4,
{4}A3,B3/E4,B6/B7/E6,{8}8,1-5[8:1],
{8},1x,,4x/6x,{4}4x/6x,3x/7x,
{4}6-2[8:1],4,{8}3,3-7[8:1],,6^1[8:1],
{8},4,,3h[4:1],,5,{4}5,
{12}7,5,6,2,4,3,6,5,7,{8}3,3pp6[8:5],
{8},8,{4}8,1,8,

{4}7V53[4:1],{8}8,1,{4}2V46[4:1],{8}7,8qq4[2:1],
{8},4,,2,,1,{4}1-5[4:1],
{4}5^8[4:1],8-4[4:1],4^1[4:1],1w5[4:1],
{4},{8},3x/7x,{4}3x/7x,2v8[4:1]/6v8[4:1],
{2},{8}17,17,,2V46-8[4:1]/8V64-2[4:1],
{2},{8},28,{4}28,
{4}17,34,{8}56,5-2[8:1]/6-8[8:1],,B4/B5f/B6/E4/E7,
{8},1x,,28,{4}28,4V28^7pp3[2:3]/6,

{2}E6f,{4},{8},5xh[8:5],
{2},{4},24,
{4}12,78,{8}57,5-3[8:1]/7-5[8:1],{4},
{8},1,{4}1,{8}8,37,{4}3/7^6-2^4[2:1],
{2}8h[4:3],{4},{8}6,6h[4:1],
{8},4h[4:1],,2h[4:1],,1,{4}1v4[4:1]*v6[4:1],
{2},{4}37,{8}2,2h[4:1],
{8},4,{4}4h[4:1],6h[4:1],8-4[8:1],

{2}8/A3/D3f/E3,{4}5,{8}5,{16}A2/D3/E3,A1/B1/E1,
{2}A6/B6/D7/E6f/E7,{4}4,4,
{2}A1f/D2/E2,{4}4,{8}4,{16}A1/D2/E2,B7/B8/C,
{2}A5f/A6/D6/E6,{4}4,4,
{4}A3f/B3/D3/D4/E3/E4,5,A2f/B2/D2/D3/E2/E3,8,
{4}A7f/B7/D7/D8/E7/E8,5,A6f/B6/D6/D7/E6/E7,2xh[4:1],
{16}4bx,3,4,3,4,3,4,3,5,4,5,4,{4}5v4[8:1]b,
{2}3b,{4}2-7[8:1]b,2b>6[4:1],

{4}6<2[4:1],2>6[4:1],6<2[4:1],2,
{4}6,4b/8b,{8}2b/6b,3,5,6,
{8}7-4[8:1],7,3-8[8:1],3,5,6-3[8:1],6,2h[4:1],
{8},5<1[4:1],5,4,{2}4w8[8:1],
{4}2bx-4[8:1]/6bx-8[8:1],2v5[8:1]/6v1[8:1],26,{8}37,3^8[8:1]/7^4[8:1],
{8},37,,2b/6b,2b/6b,3,4,5,
{8}6,5-3[8:1],6-8[8:1],5-2[8:1],6-1[8:1],5,6,5x,
{8}8b,8b,3b/7b,3b/7b,2b/6b,2b/6b,{4}7x-5[8:1],

{8}1pp3[4:1],1,6x,6x,{4}5,{16}2h[16:3],,,4h[16:3],
{16},,3h[16:3],,,7h[16:3],,,5h[16:3],,,8h[16:3],,,{8}6,
{8},4h[8:1]/7h[8:1],,{16}6,5,6,5,7,8qq6[8:1]*v2[8:1],{4},
{4},3x/5x^4-7pp1^8-3[4:3],{2},
{4},2h[4:1],,4h[8:1]/6h[8:1],
{16}3,5,3,5,3,5,{8}3h[8:1],{16}7,5,7,5,7,5,{8}6,
{16}2h[16:3],,,4h[16:3],,,6h[16:3],,,8h[16:3],,,{8}1,1,
{16}2x,3,4,5,8x,7,6,5,2x,3,4,5,8x,7,6,5,

{2}2-6[8:1]*-7[8:1],1/2-6[8:1]*-7[8:1],
{2}2-6[8:1]*-7[8:1]/3,{4}4x/8x,4x/8x,
{4}3-6[4:1],6p2[4:1],2v7[4:1],7<1[2:1],
{4}8,8,6,6,
{2}2-5[8:1]*-7[8:1],1/2v5[8:1]*-7[8:1],
{2}2v5[8:1]*v7[8:1]/3,{4}4x/8x,3x/7x,
{4}8-5[4:1],5-1[4:1],1-4[4:1],4-8[4:1],
{4}8,1,{16}1,8,1,8,{4}1,

{2}7V53[8:1]/8v3[8:1],7v4[8:1]/8V24[8:1],
{2}7V53[8:1]/8V63[8:1],{4}1x/2x,7x/8x,
{4}6-2[4:1],2-5[4:1],5-1[4:1],1-6[4:1],
{4}6<4[2:1],5,5,5,
{2}1v3[8:1]/7^5[8:1]b,2-4[8:1]b/8v6[8:1],
{2}1v3[8:1]/7-5[8:1]b,{4}28,28,
{4}1^4[4:1],4-8[4:1],8^5[4:1],5-1[4:1],
{4}1^4[4:1],4,5,5h[1:1]/6-1[8:1]b,
{2}6b,{4},1^6v3[4:5],

{2},{4},{8},4V68-5[8:9],
{2},{4},3-8^1-5[4:5],
{2},{4},{8},6^7-2q8[8:9],
{2},{4},1-4v3-8[2:3],
{2},{4},5-1[2:1],
{2},{4},2^3-6[1:1]/6^7-2[1:1],
{1},
{2},{4},1x/8x,

{4}3/E7,2/E6,1h[4:1]/B4,6,
{4}6/E3,7/E4,8h[4:1]/B5,3,
{4}3/D7,2/D6,1/A4,8/A3,
{4}8/B4,1/B5,2h[4:1]/E7,7,
{4}8h[4:1]/E4,3,1h[4:1]/E6,6,
{4}6/E3,7/E4,8h[4:1]/B5,4,
{16}3x,7,3,7,3,7,3,7,4,8,4,8,5,1,5,1,
{8}6b,7b,8b,1b,2b,3b,{4}4b-8[8:1],

{4}4-2[8:1]*-6[8:1],4w8[8:1],4b,{8}2/6-2[8:1],2-5[8:1]/6,
{8},1,1,2,36,5,4-7[8:1],3,
{4}4-1[8:1],4-8[8:1],4qq1[8:5],{8}6,6,
{8},7,6,5,{4}4-1[8:1],4/8-5[8:1]*-6[8:1],
{4}8-2[8:1]*-3[8:1],8,{8}5,5-8[8:1],,1-3[8:1]*-4[8:1]/5,
{8},1,,25,25,3,{4}4>8[4:1],
{4}8<4[4:1],4>8[4:1],8,4,
{8}6,6,{32}4b,3b,2b,1b,8b,7b,6b,5b,4b,3b,2b,1b,8b,7b,6b,5b,{4}4b,

{8}2-4[8:1],1-7[8:1],2-6[8:1],1-5[8:1],2,1,,7-5[8:1],
{8}8-2[8:1],7-3[8:1],8-4[8:1],7,{4}8,2V86[4:1]/5,
{4}6V82[4:1],4,5,{8}7,7s3[4:1],
{8},3,2,1,{4}1,3b/7b,
{8}2-5[8:1],8-4[8:1],2-6[8:1],8-3[8:1],2^5[8:1],8,2,7-4[8:1],
{8}1-5[8:1],7-3[8:1],1-6[8:1],7^4[8:1],1,7,{4}1x,
{16}1,7,1,7,1,7,1,7,2,6,2,6,3,5,3,5,
{16}4b,6,4b,6,3b,7,3b,7,2b,8,2b,8,{4}1bV35[8:5]*V75[8:5],
{1},
{16}A3,B5,A2,B8,E4,E6,E2,E8,B4,A6,B1,A7,{4}Cf,

{4}2x-6[8:1],1/2b,{8}7-5[8:1],8,7b,4,
{8}3-7[8:1],8,{4}3b,{8}8-4[8:1],5,8b,3,
{4}2-5[8:1],{8}2b/8,7,{4}6-2[8:1],{8}6b,8,
{4}1-4[8:1],1b/4,{8}5-1[8:1],6,5b,4,
{4}3-6[8:1],3b,{8}7-1[8:1],8,7b,5,
{8}4-8[8:1],8,{4}4b,{8}6-3[8:1],5,6b,2,
{4}1-5[8:1],1b/6,{8}8-4[8:1],7,{4}8b,
{8}1b/3b,1b/3b,2b/8b,2b/8b,1b/7b,1b/7b,{4}6b-3[8:1]/8b,

{4}6bx/7-2[8:1],6-4[8:1]/7bx,6bx/7-1[8:1],6-3[8:1]/7bx,
{4}6bx/7-2[8:1],6-4[8:1]/7bx,6bx/7-1[8:1],7b,
{4}5-2[8:1]/6-1[8:1],5b/6b,7-4[8:1]/8-3[8:1],7b/8b,
{4}5-2[8:1]/6-1[8:1],5b/6b,{8}8b,7b,{4}6b-3[8:1],
{4}6bx/7-2[8:1],6-4[8:1]/7bx,6bx/7-1[8:1],6-3[8:1]/7bx,
{4}6bx/7-2[8:1],6-4[8:1]/7bx,6bx/7-1[8:1],7b,
{4}5-1[8:1]b/6-2[8:1]b,5b/6b,7-3[8:1]b/8-4[8:1]b,7b/8b,
{8}2b/5b,{16}3,4,{8}2,18,6bw2[8:1]b,57,
E

Re:MASTER


名前:
コメント:

タグ:

+ タグ編集
  • タグ:
最終更新:2026年07月18日 14:07