アットウィキロゴ

ちっちゃな私

アーティスト マサラダ

BPM BASIC ADVANCED EXPERT MASTER Re:MASTER
143 3 6 9+ 12+ -

EXPERT MASTER Re:MASTER
譜面制作者 はっぴー サファ太 -

BASIC


ADVANCED


EXPERT


MASTER

(143)
{8}5,,5,,5,4x/6x,5,4x/6x,
{4}3/5h[4:1],E3,C/E2,{8}8,8,
{4}B1,E1,A1/B7,{8}5,5,
{4}3/5h[4:1],E3,C/E2,{8}8,8,
{4}B1,E1,A1/B7,{8}5,5,
{4}3/5h[4:1],E3,C/E2,{8}8,8,
{4}B1,E1,A1/B7,{8}5,5,
{4}3/5h[4:1],E3,C/E2,{8}8,8,
{4}8/B1,E1,1-5[8:1]b,1bx,
{8}8,,5/7,6,5,6,5/7,8,
{8}2/1h[2:1],,3,{16}3x,4x,5xh[4:1],,,,8bx,,,,
{8}7,7,5,6,7h[4:1],,5,6,
{8}4/7<4[4:1],,3,{16}3x,2x,1x,,,,5x/8x,,,,
{8}6h[4:1],,5,6,7h[4:1],,6,5,
{8}4/7<4[4:1],,3,{16}3x,2x,1xh[4:1],,,,3h[4:1],,,,
{4}5h[4:1],6,7/4-1>2-7[16:7],{8}6,6,
{8}5h[8:3],,,{16}8x,1x,2bx/4bx,,,,4/5,,,,
{4}5/6h[4:3],E8h[4:1],,1h[1:1],
{4}4,E3h[4:1],,3q7[4:1],
{4}1,1q5[4:1]b,7,8h[2:1],
{4}B8,2h[2:1],B2,1,
{4}8/3h[4:7],8,B2/D2/E2,B4/D4/E4,
{4}A1h[2:1]/E1h[2:1],,,8h[4:3],
{4}4x,5x,6,6v4[8:1]/7v4[8:1],
{8},,,4,4,3/5,2-7[8:1]/6-3[8:1],,
{8}2b/6b,,1/5,2/6,3/7<4[8:1],8,2<8[8:1],3,
{4}5bx,7x-5[8:1]/8x-4[8:1],7/8,3x>1[8:1]b/4x-7[8:1]b,
{8}3/4,,8b,,1,2,5/3>7[4:1],6,
{4}7b>3[4:1],3V57[4:1],C,8-4[8:1]*-3[8:1],
{8}8b,,2,2,1/3,8,5/7,6,
{4}4v1[8:1]/5<8[8:1],4/5,1xv6[8:1]/2x>5[8:1],1/2,
{4}8/7-3[8:1]b,7b/2v5[8:1],2/7>2[8:1],7/4w8[8:1],
{4}4b,A2/A6/B6/D3/E3/E6f,1/7,{16}2,8,2,8,
{8}2b>4[8:1],,1,8,{16}7,5,6,,4/5,,4/3h[4:1],,
{16},,4,,4,3,,5/2<7[8:1],,,{8}6,6,6,
{16}7,8,7,,2,1,,3/8,,,{8}5/6,4/5,4/3h[4:1],
{16},,E3,E2,E1,E8,E7,E6,1bx/E5,,{8}3bx,5bx-1[8:1],,
{16}5b/6,,,,1x/4x<7[8:1],,,,1,2,3,,8x,,8,,
{8}1/7,6/8,1/7,8/2h[4:1],,E2,C,E6h[4:1],
{8},8x,8,1/7,6,4/5,3,1/2q6[8:1]*>5[8:1],
{8},2,,7/8,,1/2,{24}1/2x,3x,4x,5x,,,
{8}8b,B1,E8,5,6,B3,E5,5x,
{24}2/6x,,,E3,B3,B5,E6,,,{8}2,2<7[4:1],,5,5,
{8}6x,E5,E4,5x,6x,E5,B3,E2/Ch[8:5],
{8},1,1,1,1V35[4:1],,8,8,
{8}8,E5,E7,5,6,E3,E4,5,
{4}2h[8:1]/6h[8:1],{24}E6,B5,B3,E3,,,{8}6x/1x>4[4:1],,B4,C,
{8}8,8,2,3,2/4,1-3[8:1]/5-7[8:1],4/8,1bqq4[8:5]b/5bqq4[8:5],
{1},
{1}6h[2:3],
{4}4h[2:5],,,5v6[2:1],
{1},
{4}6h[2:5],,,5v4[2:1],
{1},
{4}4h[2:5],,,A6/D7,
{1}A5h[2:1]/D6h[2:1],
{4}6h[4:9],,,A5/D5,
{1}A4h[2:1]/D4h[2:1],
{2}4h[4:5],5h[4:1],
{2}6h[4:5],5h[4:1],
{2}4h[4:5],D5h[4:1],
{2}6h[4:5],D5h[4:1],
{2}4h[4:5],7h[4:1],
{2}6h[2:3],3h[1:2],
{4},,,5,
{4}6h[8:11],,,4,
{1}4h[2:1],
{16}4,5,4,,6,,4,5,4,,{8}6,3bx/7bxh[2:1],,
{8}2,3,4,5,6,7/8,7/8>2[8:1]b*<5[8:1]b,,
{8}8b-4[8:1],,3x,3x,2x/4x,1,8>3[8:1],7,
{4}8/6-1[8:1],6/4-8[8:1],4/7-5[8:1]b,7/1-3[8:1]b,
{8}1/4x-7[8:1]b*-8[8:1]b,,4b,,1/2,3,4>8[4:1],6,
{4}8<4[4:1],4>8[4:1],8,6-4[8:1]b*-2[8:1]b,
{8}6b,,1,1,7-5[8:1],8,1-5[8:1],2,
{4}8x,1x<6[8:1]/5x>2[8:1],1/5,5x/1x-5[8:1]b,
{16}1/7x,,7,,7h[16:3],,,5,6,,{8}5/7,8,2,
{4}3/4q2[4:1],2<4[4:1]b,E3f,1w5[8:1],
{8}1b,,8>4[16:3],7,6/8,7,1V75[16:3]b,2,
{4}1/3,3-1[8:1]*-8[8:1],3,5>3[8:1]b/6<8[8:1]b,
{8}5/6,,A1/A2/A3/B1/B2f/B3/B4/D2/D3/E2/E3/E4,,7/8,7/8,5/6,3/4,
{4}1-4[8:1]/2-4[8:1],1<4[4:1]b/2p3[4:1]b,A1/A2/D2f,,
{8}2/1-6[8:1],,1/8x,8x,5/7-4[8:1],4,3/7,2,
{4}1/4x-8[8:1],4/2-6[8:1],2/7-1[8:1]b,7/5-3[8:1]b,
{8}6/5w1[8:1],,5b,,3/7,4,3-8[8:1]/6-4[8:1],7,
{8}3b/6b,,1/5,{24}2,4,2,4,,,{8}3/5,5-1[8:1]/7-3[8:1]b,,
{1}A5/A6f/A7/D6/D7,
E

Re:MASTER


名前:
コメント:

タグ:

+ タグ編集
  • タグ:
最終更新:2026年07月19日 15:17