アットウィキロゴ

2代目閻魔

アーティスト 読谷あかね

BPM BASIC ADVANCED EXPERT MASTER Re:MASTER
135 2 6 10 13+ -

EXPERT MASTER Re:MASTER
譜面制作者 せめんともり はっぴー -

BASIC


ADVANCED


EXPERT


MASTER

(135)
{4}5,5,5,5,
{4}5,5,5,4x/5,

{4}3h[4:1]/5,5,1h[4:1]/5,5,
{4}5/7h[4:1],5,1h[4:1]/5,5,
{4}3h[4:1]/5,5,1h[4:1]/5,5,
{4}5/7b,3b/5,5/6b,5,

{4}45,4-1[4:1]/5,5,5,
{4}15,1-6[4:1]/5,5,5,
{4}57,5/7-2[4:1],5,5,
{4}15,1^4[4:1]/5,5,5,
{4}45,4p8[4:1]/5,5,5,
{4}57,5/7q3[4:1],5,5,
{4}45,45,56,5/6pp3[2:1],
{4}5,5,5,35,

{4}57,{8}58,8,15,1,58,8,
{8}15,1,{4}5/8V24[4:1],5,5,
{4}35,{8}45,6,57,7,56,4,
{8}35,3,4/5V31[4:1],6,{4}57,5,
{8}3h[4:1]/5,4,5,4,5/7h[4:1],6,5,4,
{8}3h[4:1]/5,4,5,6,5/7h[4:1],6,5,4,
{8}35,4,57,46,35,24,{4}1-3[8:1]/5,
{4}1b-6[8:1]/5b,1b-4[8:1]/5b,1b/5b,3>6[2:1]/5,

{8}5x,,,5x,{4}5x,6<3[2:1],
{16}5,,,5,,,{8}5,{4}5,3>6[2:1],
{8}5,,,5,{4}5,6^1v3[2:1],
{16}5,,,5,,,{8}5,{4}5,5,
{4}1h[4:1]/5,5,5/8h[4:1],5,
{4}4h[4:1]/5,5,{16}5/6h[4:1],,,5,,,{8}5,
{8}5,5,45,45,5,5,56,56,
{16}5,5,5,5,5,5,5,5,5,5,5,5,5qq2[2:1]*pp8[2:1],5,5,5,
{2},{4},3b/7b,

{8}5,{16}6,4,5,4,6,4,5,4,6,4,{8}5,A1/A8/B1/B2/B7/B8/E1,
{8}35,{16}6,4,5,4,6,4,5,4,6,4,{8}5,A1/A8/B1/B2/B7/B8/E1,
{4}35,{16}5,3,4,3,5,3,4,3,{8}5,A1/A8/B1/B2/B7/B8/E1,
{8}35,4,5^2[8:1],6,5^8[8:1],6,35,4,
{8}35,{16}6,4,5,4,7,4,5,4,6,4,{8}5,A1/A8/B1/B2/B7/B8/E1,
{4}5,{16}5,3,4,3,5,3,4,3,{8}5,A1/A8/B1/B2/B7/B8/E1,
{8}35,4,5,6,35,2,{4}1-6[8:1]/5-8[8:1],
{4}1bx-4[8:1]/5bx-2[8:1],1bx-6[8:1]/5bx-8[8:1],1bx/5bx,1^3[8:1]/5,

{4}15,{8}5/8^6[8:1],1,{4}58,{8}1^3[8:1]/5,8,
{4}15,{8}57,{16}8x,7x,{4}5/6x,5/7-2[8:1],
{4}57,2-7[8:1]/5,25,5/7-2[8:1],
{4}57,{8}25,{16}3x,2x,{4}1x/5,1-6[8:1]/5,
{4}15,{8}5/8-3[8:1],7,{4}58,{8}1-6V83[2:1]/5,2,
{4}15,5,5,2^5[8:1]/5^8[8:1],
{4}25,5^2[8:1]/8^5[8:1],58,2^5[8:1]/5^8[8:1],
{4}2/5-1[8:1],57,35,5^2[8:1]/6^1[8:1],

{4}5b/6b,5,35,35,
{4}2^4[8:1]/5,5,5/8^6[8:1],5,
{4}4^2[8:1]/5,5,5/6^8[8:1],5,
{4}5b,5b,5b,5b/3^2-7[2:1],

{8}5b,,,5,{4}5,6^7-2[2:1],
{16}5,,,5,,,{8}5,{4}5,3^2-7[2:1],
{8}5,,,5,{4}5,6^7pp2[4:3],
{16}5,,,5,,,{8}5,{4}5,5,
{4}1h[8:1]/5,15,5/8h[8:1],58,
{8}1-6[8:1]/5,1,{4}5,{8}5/8-4[8:1],8,{4}5,
{8}35,35,57,57,45,45,56,56,
{16}5,5,5,5,5,5,5,5,5,5,5,5,5,5,5,5,

{16}5b,,,6,5,6,6,6,5,6,6,6,{8}5,A1/A8/B1/B2/B7/B8/E1,
{8}35,{16}6,6,5,6,6,6,5,6,6,6,{8}5,A1/A8/B1/B2/B7/B8/E1,
{4}35,{16}5,4,4,4,5,4,4,4,{8}5,A1/A8/B1/B2/B7/B8/E1,
{8}35,4,5-8[8:1]/6,3,15,2,35,6,
{8}57,{16}6,6,5,6,6,6,5,6,6,6,{8}5,A1/A8/B1/B2/B7/B8/E1,
{4}35,{16}5,3,3,3,5,3,3,3,{8}5,A1/A8/B1/B2/B7/B8/E1,
{8}35,4,5,6,35,2,{4}1-6[8:1]/5-8[8:1],
{4}1b-4[8:1]/5b-2[8:1],1b-6[8:1]/5b-8[8:1],1b/5b,1-3[8:1]/5,

{4}1-7[8:1]/5,{8}1^3[8:1]/5,4,{4}1^7[8:1]/5,{8}1-3[8:1]/5,4,
{4}15,{8}25,{16}14,2,{4}35,5/8-6[8:1],
{4}5/8-2[8:1],{8}5/8^6[8:1],4,{4}5/8^2[8:1],{8}5/8-6[8:1],4,
{4}58,{8}37,{16}46,7,{4}58,1-4[8:1]/5,
{4}1-6[8:1]/5,{8}1^4[8:1]/5,4,{4}1^6[8:1]/5,{8}1-3p6-8[2:1]/5,4,
{4}5,{8}5,4,{4}5,5/8-6[8:1],
{4}58,2-4[8:1]/5,25,3-7-2^8[8:5]b/5,
{4}5,5,5,1b/5b,

{16}5/E2,B2,B3,E4,{4}5,{16}5/E8,B8,B1,E2,{4}5,
{16}5/E6,B6,B7,E8,{4}5,{16}5/E4,B3,B2,E2,{4}5,
{16}5/E1,B8,B7,E7,{4}5,{16}5/E3,B2,B1,E1,{4}5,
{16}5/E5,B4,B3,E3,{4}5,{16}5/E1,B8,B7,E7,{4}5,
{4}3-8[8:1]/5,35,5/6-1[8:1],56,
{4}2-8[8:1]/5,2-4[8:1]/5,2-6[8:1]/5,25,
{4}5/7h[4:1],5,4h[4:1]/5,5-3[8:1]*-7[8:1],
{4}5-1[8:1],5^2[8:1]*^8[8:1],5w1[8:1],5b,
E

Re:MASTER


名前:
コメント:

タグ:

+ タグ編集
  • タグ:
最終更新:2026年07月18日 00:05