BASIC
ADVANCED
EXPERT
MASTER
(165)
{4}3,3h[4:3],,E4,E5,,
{4}6,6h[4:3],,E6,E5,,
{4}3,2h[4:3],,E3,E4,,
{4}6,6h[4:1],5,3,3h[4:1],4,
{4}5,5q3[2:1],,4,4,,
{4}3,3p6[2:1],,5,5,,
{4}6,6pp4[4:3],,4,3,,
{4}(150)E2,(140)C,(130)E6,(150)E5fh[2:1],,,
(165)
{8}7bx,8,16,7,2,1,38,2,
{8}17,6,17,8,{16}2,1,{8}2,{4}13,
{8}3,4,25,3,6,5,47,6,
{8}35,2,4-1[8:1]/6-1[8:1],7,{4},28,
{8}7,7,56,7,2,2,34,2,
{8}18,7,68,7,{16}2,1,{8}2,{4}38,
{8}47,6,25,3,{16}5,4,5,4,{4}5,
{2}3-8[8:1]/6-1[8:1],{4}27,6<3[4:3],
{4}5,5,5,5,
{4}4h[4:1],3h[4:1],2h[4:1],1-4[4:1],
{4}4^7[4:1],7^2[4:1],2-5[4:1],5q3[2:1],
{2}4h[2:1],{4},3>6[4:3],
{4}4,4,4,4,
{4}5h[4:1],6h[4:1],7h[4:1],8-5[4:1],
{4}5^2[4:1],2^7[4:1],7^4[4:1],4V62-8[2:1],
{2}Cf,{4},17,
{8}2b-4[8:1],5,,5,3-5[8:1],6,,6,
{8},7,47,{16}6,5,{8}6,{16}3,4,{8}3,25,
{4}2h[8:1]/5h[8:1],2h[8:1]/5h[8:1],3h[8:1]/6h[8:1],4h[8:1]/7h[8:1],
{16}8x,7x,6x,5x,4x,3x,2x,1x,{4}8x/C,26,
{8}7-5[8:1],4,,4,6-4[8:1],3,,3,
{8},2,25,{16}3,4,{8}3,{16}6,5,{8}6,57,
{4}5/7-1[8:1],3-5[8:1],6-2[8:1],{8}3,3q5[2:1],
{8},1,8,7,6,6,{4}56,
{4}5,6,5/7h[4:3],E6,E7,E8,
{4}8,1,2h[4:3]/8,E2,E3,E4,
{4}5,6,57,4,3,2/4<8[2:1],
{4}3,4,5>1[2:1],6,5,4h[4:6],
{4}E8,E7,E6,E5,E4,2xh[4:6],
{4}E5,E4,E3,E2,E1,6h[4:6],
{4}E1,E8,E7,E6,E5,C,
{4}1^4[2:1],,,8b,,,
{4}E7,C,E3,1-3[8:1]/6,
{8}1-5[8:1],5,1-3[8:1],4,1-5[8:1],5,1,4,
{16}6,6,{8}5,{16}3-6[8:1]*-8[8:1],4,{8}2,{4},7-5[8:1],
{8}7-3[8:1],1,7-5[8:1],8,7-3[8:1],1,7,8,
{16}1x,2,3,4,1-5[8:1],8,7,6,{4}1,8-6[8:1],
{8}8-4[8:1],4,8-6[8:1],5,8-4[8:1],4,8,5,
{16}3,3,{8}4,{16}6-1[8:1]*-3[8:1],5,{8}7,{4},2-4[8:1],
{8}2-6[8:1],8,2-4[8:1],1,2,8,{4}3-1[8:1]/8-4[8:1],
{4}3-6[8:1]/8-6[8:1],38,{2}4bh[4:1]/8bh[4:1],
{4}3h[8:1],3h[8:1],4h[8:1],4h[8:1],
{4}5h[8:1],5h[8:1],6h[8:1],6p4[2:1],
{4}5,4,3,3v8v5[2:1],
{4}4,4,4,4,
{4}6h[8:1],6h[8:1],5h[8:1],5h[8:1],
{4}4h[8:1],4h[8:1],3h[8:1],3q6[4:3],
{4}5,6,7,8<1[2:1],
{2}C,{4}8,27,
{8}1xp5[8:1],6,,6,4p8[8:1],6,,6,
{8},7,17,{16}2,4,{8}3,7,{4}5p8[4:1]/6,
{4}8p4[4:1],4^1[4:1],1q5[4:1],5pp1[2:1],
{2}Cf,{4},18,
{8}7-4[8:1],3,,3,5-1[8:1],3,,3,
{8},2,28,{16}7,5,{8}6,2,{4}3/4V68[4:1],
{4}8V24[4:1],4V68[4:1],8,{8}2,2>7[8:3],
{8},E7,E6,E5,{4}E4,12,
{4}3h[4:2],4,4h[4:3],5,5,5h[4:3],
{4}6,6,6pp5[2:1],5,4,4b,
{4}3^8[4:1],4,5,6^3[4:1],7,8,
{4}1^6[4:1],2,3,{8}4,4,5,5,{4}3,
{4}4/6h[4:2],5,5h[4:3],4,4,4h[4:3],
{4}3,3,3V17-5[2:1],4,4,4,
{4}4pp4[4:2]*qq4[4:2],,,,25,36,
{4}B4fh[4:3]/B5h[4:3]/E4h[4:3]/E6h[4:3],,,,,8^6[8:1],
{8}8q4[8:1],4,8^6[8:1],5,8q4[8:1],4,8,5,
{16}3,3,{8}4,{16}6-3[8:1]*^1[8:1],5,{8}7,{4},2^4[8:1],
{8}2q6[8:1],8,2^4[8:1],1,2q6[8:1],8,2,1,
{16}5,8,5,8,4,7,3,6,{4}2x/5x,1^3[8:1],
{8}1p5[8:1],5,1^3[8:1],4,1p5[8:1],5,1,4,
{16}6,6,{8}5,{16}3-6[8:1]*^8[8:1],4,{8}2,{4},7^5[8:1],
{8}7p3[8:1],1,7^5[8:1],8,7p3[8:1],1,7,1,
{4}1h[8:1]/4h[8:1],2h[8:1]/5h[8:1],3v1[8:1]/7v5[8:1],Cf,
{8}1-5[8:1]/8-4[8:1],27,{4}1b/8b,{8}6/8^5[8:1],7,28,2,
{16}3,4,{8}3,5-1[8:1]/6-2[8:1],47,{4}56,3-5[8:1]/8,
{8}3/8-6[8:1],1,3-8[8:1]/8,2,3/5-1[8:1],4,{4}25,
{16}8,7,6,5,8p4[8:1]b,1,2,3,{4}8,1-4[8:1]/5,
{8}1-6[8:1]/7,8,1^4[8:1]/3,2,1-5[8:1]/7,8,13,2,
{16}7,8,{8}6,3-7[8:1]/4-8[8:1],25,{4}34,1/6-4[8:1],
{8}1-3[8:1]/6,8,1/6-1[8:1],7,4-8[8:1]/6,5,{4}47,
{4}1-5[8:1]/7-3[8:1],17,{2}2bqq8[1:1]/6bqq4[1:1],
{1},
{4}1^4[8:1]b/5^8[8:1]b,1-6[8:1]/5-2[8:1],15,{32}3x,4,5,6,7,8,1,2,
{1}3b/7b,
E
Re:MASTER
最終更新:2026年07月18日 19:26