アットウィキロゴ

Cryogenic

アーティスト Camellia ft. Petra Gurin

BPM BASIC ADVANCED EXPERT MASTER Re:MASTER
145 3 6 11 13+ -

EXPERT MASTER Re:MASTER
譜面制作者 Luxizhel ぴちネコ -

BASIC


ADVANCED


EXPERT


MASTER

(145){1},,
B6/B7/E7h[16:7],
B2/B3/E3h[16:7],
{2}B4h[16:15]/B5h[16:15]/E5h[16:15],B1h[16:7]/E1h[16:7]/B8h[16:7],
{16},,,,,,,3hx[16:3]/6hx[16:3],,,,,,,,,
{4}6,4/6,3,3/5,
6,5/6,3,3/4,
{8}Ch[4:3]/5,,5,,5h[4:1],,,E3f/8x,
{16},2x/E6f,,,D4f/7x,,,3x/E8f,,,,,4b/6b,,,,
{8}5-7-3-5[8:11],,,,,,8,8h[4:1],
,{4},1,2,{8}3-6[32:3],
,3-1-7-3[8:11]b,,,,,4,4h[4:1],
,{4},5,6,{8}7,
{4}7>2[4:1],2>5[4:1],5<8[4:1],8V24[4:1],
4V68[4:1],8V24[4:1],4,8,
{8}2h[8:1],3h[8:1],4h[8:1],5h[8:1],6h[8:1],7h[8:1],8h[8:1],1h[8:1],
{12}2,{24}1,{12}2,{24}1,{12}3,{24}8,{12}3,{24}8,{12}1x-5[32:3]b/2x-6[32:3]b,,,1b/2b,,,
{8}4x/7x,,3h[8:1],4,5h[8:1],4,3h[8:1],4,
2h[8:1],4,1h[8:1],4,8-3[32:3]*-4[32:3],8,,,
2/5,,6h[8:1],5,4h[8:1],5,6h[8:1],5,
7h[8:1],5,8h[8:1],5,1,1qq7[6:1],,1pp3[6:1],
,,,6,6h[8:1],4,3h[8:1],5,
7h[8:1],8,2h[8:1],1,7>2[32:3],7,,,
3/4,5>2[8:1],6pp6[4:1],5x,6x,,4,5>2[8:1],
6pp6[4:1],5x,6xqq5[4:1],,2,,2,,
{24}3/4,,,6,,,7/8,,,2,,8,1-7[12:1],,,5,,,1-3[12:1],,,5,,,
{8}1<6[8:1],5,1>4[8:1],5pp4[4:1],1,5x,,3h[4:1],
{24},,,4,,,1/2,,,7,,1,8-2[12:1],,,4,,,8-6[12:1],,,4,,,
{8}8>3[8:1],4,8<5[8:1],4qq5[4:1],8,4x,,6h[8:5],
,,5-8[8:1],,5,,6,5,
3<6[8:1]/4h[2:1],,,,7,6b/8b,,1b/3b,
4,5>2[8:1],6pp6[4:1],5x,6x,,4,5>2[8:1],
6pp6[4:1],5x,6xqq5[4:1],,2,,2,,
{16}3/4,,,,,,,,E7h[1:1],,,E6h[16:13],,,E5h[8:5],,
{4},,,3,
{16}2h[8:3]/4h[16:3],,,,,,,,E5h[4:5],,,E4h[16:17],,,E3h[8:7],,
{1},
{8}1,1h[8:1],2,2h[8:1],3,3h[8:1],4,4h[8:1],
8,8h[8:1],7,7h[8:1],6,6h[8:1],5,5h[8:1],
{12}1x,{24}1,{12}2,{24}2,{12}3,{24}3,{12}4,{24}4,{12}5,{24}5,{12}6,{24}6,{12}7,{24}7,8h[8:7],,,
{1}1hb[4:3],
{64}8bv3[8:1],D8f,A7,D7,{16}A6,{64}1bv6[8:1]b,D2f,A2,D3,{16}A3,8b,,1b,,,,5x,,2b/7b,,,,
{24}3/5,,,4,,,5,,5>2-6[4:1],4,,6,,,5x/7x,,,,8,,,8,,,
5/7,,,6,,,4,,4<7-3[4:1],5,,3,,,2x/4x,,,,1,,,1,,,
2/4,,,3,,4,2,,,6,,5,7,,,3,,4,2h[8:1],,,1,,1,
,,8,3,,3>5[24:7],1,,1h[12:5],,,3bx,,,,,,,,,,,,,
5/6,,,2,,,8,,8<6-1[4:1],1,,6,,,5x/8x,,,,4,,,5,,,
6/8,,,7,,,1,,1>3-8[4:1],8,,3,,,1x/4x,,,,5,,,4,,,
1/3,,,3,,4,2,,,6,,5,7,,,3,,4,1x,,,{48}D1/5x,A8,D8f,,,,
{16},{48}D2/5x,A2,D3f,{16},,{48}E1/5x,E8,D7f,{16},,{48}E2/5x,E3,D4f,{16},,6,,5,,4,,
{1}4<4[4:5]/5h[1:1],
{4},5p4[4:1]b,,,
{16}3b/7b,,,,1>4[8:1]/2,,,,1/6,,,7,1<6[8:1],,8,,
1/4,,,3,1>4[8:1],,2,,1/7,,,6h[16:3],,,5,,
5b/7b,,,,7/8<5[8:1],,,,3/8,,,2,8>3[8:1],,1,,
5/8,,,6,8<5[8:1],,7,,2/8,,,3h[16:3],,,4,,
2b/4b,,,,1<6[8:1]/8,,,,1/2,,,3,5>2[8:1],,4,,
5/6,,,7,1<6[8:1],,8,,1/2,,,3,5>1p7[4:3],,4,,
{1}5/6h[4:3],
{8}6b/7b,5b/8b,1b/4b,2b/3b,,,,,
{16}B3/E3/A3h[4:1],,,,,,,E1/B8/A8h[16:5],,,,,,,,,
{4}B4/A4h[4:1]/E5,{24}2x,1,8,7,6,5,{4}2bx-5[32:3]b/4bx,2bx/7bx-4[32:3]b,
{16}1hbx[4:1]/7bx,,,,4,,,E3/E4/6hx[16:5],,,,,5,,,3hx[16:5]/E6/E7,
,,,,1,1,,2xz6[32:5]/8x,,,7h[8:3],,,,,,
{24}5,,,,,,1b,,1<6-2[4:1],8,,2,,,1x/4x,,,,3,,,3,,,
1/2,,,3,,,5,,5>2-6[4:1],4,,6,,,5x/8bx,,,,7bx,,,7bx,,,
5/6,,,3,,4,1,,,6,,5,8,,,3,,4,1,,,1h[8:3]/5,,,
{16},6,6,,7-3[32:3],,2-6[32:3],,,,,,8b,,,,
3/4,,,,1/6<1[8:1],,,,5/6,,,4h[16:3],2>5[8:1],,1,,
1/2,,,8h[16:3],6<1[8:1],,5,,5/6,,,4h[16:3],,,2,,
1b/3b,,,,3>8[8:1]/8,,,,3/4,,,5h[16:3],7<4[8:1],,8,,
7/8,,,1h[16:3],3>8[8:1],,4,,3/4,,,5h[16:3],,,7,,
6b/8b,,,,1/2<7[8:1],,,,2/3,,,4h[16:3],6>3[8:1],,7,,
6/7,,,8h[16:3],2<7[8:1],,3,,2/3,,,4h[16:3],,,5,,
{8}3/6,,3/4,1/2,7/8,5/6,3/7,{48}E4/7hx[8:1],B4,B5,E6f,,,
{16},{48}3hx[8:1]/E8,B8,B1,{16}E2f,,{64}D4/7hx[8:1],A4,D5,A5,{16}D6f,,{64}3hx[8:1]/D8,A8,D1,A1,{16}D2f,,7x,,1xs5[8:1]b/8xz4[8:1],,2x/7x,,
{24}1b/8b,,,,,,,,,4,,5,3/6,,,,,,2,,,2-8[8:1],,,
{8}5,2-6[8:1],5,2-4[8:1],5,2,5,2,
{16}3/4h[16:3],,,5,5h[16:3],,,6,6,,3-8[8:1]/7-4[8:1],,2/6,,3/7,,
{8},1/7,4,2/8,5,1>4[8:1]/7<4[8:1],,1xv8-3[8:3]/7xv8-5[8:3],
,,,,,,4b/8b,2hb[8:3]/6b,
{24}E7/E8,E1,E2,E3,E4,E5,{12}5hbx[4:1],{24}D1/D2,D8,D7,D6,{12}D5f,,,8xV63[4:1]*V25[4:1],,,
{24}8b,,,,,,,,,,,,4,,4,6-1[32:3],,,3,,,2-6[32:3]/6b,,,
{8},2/7-4[32:3],8,1-5[32:3]/7,8,1qq3[32:9]/6pp4[32:9],,1b/6b,
E

Re:MASTER


名前:
コメント:

タグ:

+ タグ編集
  • タグ:
最終更新:2026年07月19日 01:19