アットウィキロゴ

ボックスワンターバ〜ン

アーティスト ぼくわたチャンネル

BPM BASIC ADVANCED EXPERT MASTER Re:MASTER
171 3 7 10 13+ -

EXPERT MASTER Re:MASTER
譜面制作者 はっぴー サファ太 -

BASIC

(171)
{2},,
1,1,1,,8,8,8,,1,1,1/8,,8,8,8/1,,
1,1,2,2,3,3,4/5,,5,5,6,6,7,7,8/1,,
7h[1:1]/8h[1:1],,,,
5h[1:1]/6h[1:1],,,,
3h[1:1]/4h[1:1],,,,
1h[1:1]/2h[1:1],,,,
{4}1bx,1,1,,2,,2,,3,3,3,,4/5,,,,
5,5,5,,6,,6,,7,7,7,,8/1,,,,
7,7,7,,7/8,,,,6,6,6,,5/6,,,,
4,4,4,,3/4,,,,2,2,2,,1/2,,,,
8,8,8,,1bx/8bx,,,,
{2}1,1,1/2,1/2,3,3,4/5,4/5,
5,5,5/6,5/6,7,7,8/1,,
{1}
8-4[4:3],,
1-5[4:3],,
7-3[4:3],,
2-6[4:3],,
E8,E7,E6,E5,E4,E3,E2,Cf,
{4}1b,1,1,,2,2,2,,3,3,3,,4/5,,4/5,,
5,5,5,,6,6,6,,7,7,7,,8x/1x,,,,
7,7,7,,7/8,,7/8,,
6,6,6,,4/5,,4/5,,
4,4,4,,3/4,,3/4,,
2,2,2,,1/8,,1/8,,
7,7,7,,1/8,,1b/8b,,
1,1,1,,2,,3,,4,4,4,,4/5,,4/5,,
5,5,5,,6,,7,,8,8,8,,1/8,1/8,1/8,1bx/8bx,
E

ADVANCED

(171)
{4},,,,
8,8,8,,7,7,7,,6,6,6,,5/4,,5/4,,
4,4,4,,3,3,3,,2,2,2,,1/8,,,,
1,1,2,,3,3,4,,5,5,6,,7,7,1bx/8bx,,
8,8,7,,6,6,5,,4x,4,3x,,2x,2x,1b/8b,,
{2}
7h[2:1],8h[2:1],1h[2:1],2,
2h[2:1],1h[2:1],8h[2:1],7,
7h[2:1],6h[2:1],5h[2:1],4,
2h[2:1],3h[2:1],4h[2:1],5,
{4}
3x,3,2,2,1,1,7/8,,6,6,7,7,8,8,1/2,,
2,2,3,3,4,4,5/6,,7,7,6,6,5,5,4/3,,
2bx,2,2,1/2,3,3,3,3/4,5,5,5,5/6,7,7,7/8,,
7bx,7,7,7/8,6,6,6,5/6,4,4,4,3/4,2x,2x,1bx/2bx,,
{1}1pp4[3:4]/8qq5[3:4],,
{4}6,6,6/5,,7,7,7/8,,1,1,1/2,,3/4,3/4,3/4,,
3,3,3/4,,2,2,1/2,,8,8,8/7,,5/6,5/6,5/6,,
{2}7-4[4:2],,2-5[4:2],,7-3[4:2],,2,1/2,
2-6[4:2],,8-4[4:2],,2q5[4:5],,,,
{4}B7,B6,B5,,B2,B3,B4,,
B7,B6,B5,B4,C,,,,
B1,B2,B3/B4,,B8,B7,B6/B5,,
B2,B3,B4,B5,Cf,,,,
2x,2x,1x/2x,1x/2x,8x,8x,7x/8x,,
6,6,7/8,7/8,1,1,1bx/2bx,,
2,2,3/4,3/4,5,5,5/6,,
7,7,5/6,5/6,4,4,3/4,,
2,2,1/2,1/2,3,3,3/4,3/4,
5,5,5/6,5/6,7,7,8/1,,
7,7,7/8,7/8,6,6,5/6,5/6,
4,4,3/4,3/4,2,2,1/8,,
2/7,2/7,2/7,,1x/8x,1x/8x,1bx/8bx,,
1,2,3,4,5,6,7/8,,
8,7,6,5,4,3,1/2,,
8,1,2,3,4,5,6,7,8,1,2,3,4/5,4/5,3/6,3b/6b,
E

EXPERT

(171)
{4},,,
{4}3bx/6bx,4x-1[4:11]/5x-8[4:11],,,{1},,,{4}1x/8x,7,7,5/6,5/6,2,2,3/4,3/4,6,5/6,3,3/4,5,6>3[4:1],,,2h[2:1],,4,4,3h[4:1]/4h[4:1],,3h[4:1]/4h[4:1],,2h[2:1],,4,4,3h[4:1]/4h[4:1],,3/4,1b/8b,2,3,3/4,3/4,2,2V46[8:3],,,7h[4:1],5,2h[4:1],4,4/6,3/5,2b/6b,,3,3-6<7-2[8:7],,,,,,1x,2bhx[4:1]/4bhx[4:1],,3bhx[4:1]/5bhx[4:1],,4b,4b,4b,3b/5b,2-4[8:1],,7-5[8:1],,1,2/8,
{8}7,7,5,,2,2,4,,6,6,4,4,5,5,3,,
{4}2/6,1b/8b,7/8,1/2,7/8,1/2,7/8,1/2,
{8}8,8,1/7,,
{4}5/6,3/4,5/6,3/4,5/6,3/4,
{8}5,5,4/6,,
{4}7/8,1/2,7/8,1/2,7/8,1/2,
{8}8,8,1/7,,
{4}5/6,3/4,5/6,3/4,5/6,3/4,3h[4:1]/4h[4:1],,5/6,7/8,5/6,7/8,5/6,7/8,
{8}6,6,5,,
{4}3/4,1/2,3/4,1/2,
{8}3,3,4,,
{4}1h[4:1]/2h[4:1],,5/6,7/8,5/6,7/8,5/6,7/8,
{8}6,6,5,,
{4}3h[4:1]/4h[4:1],,1h[4:1]/2h[4:1],,3/4,1/2,3b/8b,,6,5/7,3,2/4pp8[4:3],,,,,E2,E3,E4h[4:1],,5,5/6,5h[4:1]/6h[4:1],,5,5/6,7,7/8,
{8}6,6,5,,
{4}7/8,1b/8b,7,6,5/7,5/7,6h[4:1]/8h[4:1],,5h[4:1]/7h[4:1],,6,7,8V64-2[4:3],,,,,,1>4[4:1],,8<5[4:1],,E4f,E3f,E2f,1x,1-5[4:1]b,,,3,1q5[4:1]b,,,7bx,
{8}6x,6x,4x,4x,7x,7x,3x,3x,8x,8x,2x,2x,1x,,
{4}3b/7b,7/8,5,1/2,4,
{8}6,6,4,,
{4}3/5,2b/6b,B3/B4/E4f,,
{2}1x>4-8<5[8:7],,,
{4}3x/4x,1/2,7/8,5/6,3/4,1/2,7/8,5/6,3h[4:1]/4h[4:1],,5h[4:1]/6h[4:1],,
{8}7,7,8,,2,2,1,,
{4}3h[4:1],1h[4:1],8h[4:1],6h[4:1],
{8}4,4,3/5,,
{4}2/6,2b/6b,7/8,1/2,5/7,2/4,7/8,1/2,
{8}8,8,1/7,,
{4}5/7,2/4,5/6,3/4,5/7,2/4,
{8}5,5,4/6,,
{4}7/8,1/2,5/7,2/4,7/8,1/2,
{8}8,8,1/7,,
{4}5/7,2/4,5/6,3/4,5/7,2/4,3h[4:1]/5h[4:1],,3/5,7/8,3/5,7/8,3/5,7/8,
{8}6,6,4,,
{4}4/6,1/2,4/6,1/2,
{8}3,3,3x/4x,,2,2,1x/2x,,
{4}3/5,7/8,3/5,7/8,3/5,7/8,
{8}6,6,4,,
{4}4h[4:1]/6h[4:1],,1h[4:1]/2h[4:1],,3/4,4-2[8:1]/5-1[8:1],,,3h[4:1]/5h[4:1],,7h[4:1]/8h[4:1],,5/6,4-8[8:1]/5-7[8:1],,1bx,2h[4:1],1,7h[4:1],8,2h[4:1],1,8,5/6,7h[4:1],8,2h[4:1],1,
{8}8,8,1/7,,5,5,4/6,,
{4}3h[4:1],1,6h[4:1],8,3h[4:1],1,
{8}8,8,5/7,,
{4}6h[4:1],8,3h[4:1],1,2/4,5/7,4/5,2b/8b,
E

MASTER

(171){4}1,2,3<6[8:1]b,B4/B5/E5f,
{16}7h[16:3],,,8,7,,
{8}1/6,2h[8:1]/5h[8:1],,4/7,6,
{16}3h[16:3],,,4,3,,
{8}2/5,1h[8:1]/6h[8:1],,3/8,2,
{16}7h[16:3],,,8,7,,
{8}1/6,2h[8:1]/5h[8:1],,4h[8:1]/7h[8:1],,3-8[8:1],3,4,,6-1[8:1],6,5,,
{16}3b/8b,,,7,8,,
{8}1/6,2h[8:1]/5h[8:1],,4/7,6,
{16}3h[16:3],,,4,3,,
{8}2/5,1h[8:1]/6h[8:1],,3/8,7,
{16}4/6h[16:3],,,3,5,,
{8}2/6,1h[8:1]/7h[8:1],,2/8,2/8,
{16}7,5,,3,4,,
{8}2,1/2-7<6[8:1]*>4[8:1],,
{4}2b,1x/8x,B5/B6/B7/B8/E5/E7,B1/B2/B3/B4/E1/E3,C,7V53[4:1],3V17[4:1],C,1V35[4:1],5V71[4:1],1V35[4:1],5V71[4:1],1,C,
{8}2/8,3/7,4>2[8:1]b/6-8[8:1],,,,
{4}1x-7-2-6-3-5[4:5],7x,6x,5x,4hx[4:1],,A6f/D7,8/1-5[8:1]b,1b/2,
{16}4/6,,3/7,,8/2h[16:3],,,3h[16:3],,,4,,2b/5b,,6,5,7b,,3,4,2b,,,,8,1,8,,
{8}2bx/8hx[2:3],,4,4,5,5,6,6,7,7,7,7,7-2[8:1]b,,8b,,5h[2:3]/B3h[2:3],,B4,B4,B4,B4,B4,B4,B4,B4,B4,B4,B4f,,1b/8h[4:5],,
{16}D2,A2,D3,A3,E3,B2,B1,B8,B7,E7,A7,E8,E1,E2,A2,E3,A3/B3f/E4,,,,
{4}A3/B3f/B4/D3/D4/E3/E4,A2/A3/A4/B2/B3f/B4/D2/D3/D4/D5/E2/E3/E4/E5,8bx,
{16}1/7h[16:3],,,6h[16:3],,,
{8}5,5,4/6,3/7>2[4:1],,2p6[4:1]b,,4,,5,5,2b-4[8:1]/8b-4[8:1],,
{4}2-6[8:1]/8-6[8:1],2-4[8:1]/8-4[8:1],2-6[8:1]/8-6[8:1],2-4[8:1]/8-4[8:1],2-6[8:1]/8-6[8:1],2/8,
{8}5x/7x,4/6,3-8[8:1]/7-4[8:1],,
{4}3-6[8:1]/7-2[8:1],3/7,4b/8b,
{8}2/6,3/7,4/8,
{16}7,7,5,,3,3,4,,
{8}1/2,1-4[8:1]/2-4[8:1],,
{4}1b-7[8:1]/2b-7[8:1],1-4[8:1]/2-4[8:1],1/2,5-8[8:1]/6-8[8:1],5b-3[8:1]/6b-3[8:1],5-8[8:1]/6-8[8:1],5/6,2/1V74[4:1],4<8[4:1],3,
{16}2x,,,3x/8x,,,
{8}4/7,4b/7h[8:3],,,6,5/6,4/5,4b/3b-8[8:1]b,,
{4}4bx-7[8:1],3bx-8[8:1]b,4bx-7[8:1],3bx-8[8:1]b,4bx-7[8:1],3bx-8[8:1]b,
{8}5bx,7,1/6x-1[8:1]b,,
{4}5bx-2[8:1],6bx-1[8:1]b,5bx-2[8:1],6bx-1[8:1]b,
{8}5bx,4,7/5h[4:1],,6bx,1/3,1/3-8[8:1]b,,
{4}4bx-7[8:1],3bx-8[8:1]b,4bx-7[8:1],3bx-8[8:1]b,4bx-7[8:1],3bx-8[8:1]b,
{8}4bx,5,1x/6x-1[8:1],,
{4}5,8/5-2[8:1],7-3[8:1],8-2-4[8:1]*-6[8:1],8bx,1>3[8:1]b/8<6[8:1]b,A1f/D2,,
{16}4b/7b,,,6,5,,
{8}3/4,2h[8:1]/5h[8:1],,1/6,1/6,
{16}8,7,8,7,8,7,
{32}D1,A1,D2,A2,D3,A3,D4,A4,D5,A5,D6,A6,D7h[4:3],,,,,,,,{2},
{2}8<4[4:1],
{16}2hx[16:3],,,4,3,,
{8}2/5,1/6-1[8:1],,2,2,
{16}2h[16:3],,,1,3,,
{8}4/8h[4:1],,5,5,5,8,6,7,4,
{48}3h[4:1]/5h[4:1],{4},{48}2x/6x,1x/7x,8x,{6},
{8}1x/6x,,2/5,5/2h[4:1],,A7/B7,A3/B3,A5/B5,
{16}2h[16:3],,,4,3>8[8:1],,
{8}3,5,,7,7/8,1x/6x,5b/2h[4:1]b,,4,3/4,
{16}6,5,,7,8,,
{4}1bx-7[8:1]/2bx-4[8:1],1b-5[8:1]/2b-6[8:1],1b/2b,3/8,
{16}2,1,2,1,2,1,2,1,E3,E1,B3,B8,B4,B7,E5,E7,A5,A6,E4,E8,B5,B6,E3,E1,Chf[4:1],,,,8b,,,,8bx,7x,6x,5x,8bx,1x,2x,3x,8bx,7x,6x,5x,4bx,3x,2x,1x,7bx-4>3[4:1]b/8bxpp2[4:1]b,,,,,,,,,,,,2b/5b,,,,3h[32:1],4h[32:1],3,4,3,4,3,4,3,4h[32:1],3,4,3h[32:1],4,3,4,2h[32:1]b,4h[32:1],3,4,2h[32:1]b,4h[32:1],3,4,2h[32:1]b,4h[32:1],3h[32:1],4h[32:1],1b,,1b,,2h[8:1]/8h[8:1],,,1h[8:1]/7h[8:1],,,
{8}6/8,6/8,1/7,2/8,3/7,
{16}A4/A5/A6/B4/B5f/B6/D4/D5/D6/D7/E4/E5/E6/E7,,,2,1,,
{8}1/8,7b/8b,,5-1[8:1]b/6-2[8:1]b,,5b/6b,,,
{32}1x/2x,8x,7x,6x,5x,4x,3x,2x,1x,8x,7x,6x,5x,4x,3x,2x,1x,8x,7x,6x,5x,4x,3x,2x,1x,8x,7x,6x,5x,4x,3x,2x,1x,8x,7x,6x,5x,4x,3x,2x,1x,8x,7x,6x,5x,4x,3x,2x,1x,8x,7x,6x,5x/E3f,4x,3x,2x,1x,8x,7x,6x,5x,4x,3x,2x,1x,8x,7x,6x,5x/E3f,4x,3x,2x,1x,8x,7x,6x,5x,4x,3x,2x,1x,8x,7x,6x,5x/E3f,4x,3x,2x,1x,8x,7x,6x,5x,4x,3x,2x,1x,8x,7x,6x,5x/E3f,4x,3x,2x,1x,8x,7x,6x,5x,4x,3x,2x,1x,8x,7x,6x,5bx/A2/A3/B2/B3/D2/D3/E3f/E4,,,,{4},
{16}7bx,8bx,6bx,,2bx,1bx,,1bx,2bx,8hbx[16:5],,,,,4bx,7bx,5bx,6bx,3bx,,1bx,1bx,,2bx/8bx,3bx/7bx,4bx/6bx,5bx,,6bx,6bx,5bx,7bx,4bx,6bx,3bx,5bx,2bx,4hbx[8:1],,3bx,5bx,4bx,6bx,,
{8}2bx/8bx,2bx/8bx,2bx/8bx,
{32}E3f,B3,B4,E5,E8f,B7,B6,E6,1bx-5[8:1],,,,,,,,
{4}1b-7[8:1]/2-6[8:1],1-5[8:1]/2-4[8:1],1-7[8:1]/2-6[8:1],1-5[8:1]/2-4[8:1],1/2w6[8:1],2,
{8}4/8,4/8,4/8x<7-5[8:1]*>1-3[8:1],,8b,,4/6,4/6,7<4[8:1],3>8[8:1],7,3,7,
{16}7,8,6,,3,4,2,,
{8}1b/5b,1b-7[8:1]/5b-7[8:1],,
{4}1-3[8:1]/5-3[8:1],1-7[8:1]/5-7[8:1],1-3[8:1]/5-3[8:1],1-7[8:1]/5-7[8:1],1-3[8:1]/5-3[8:1],5b/1bw5[8:1]b,A1f/D1/D2,
{8}3x/7x,2/6,1/5,2,4/8,7,3/5,
{16}2,1,,7,8,,
{8}1b/6h[8:3]b,,,5,7/8,1/2,4b/3b-8[8:1]b,,4bx-7[8:1],4,3bx-8[8:1]b,3,4bx-7[8:1],4,3bx-8[8:1]b,3,4bx-7[8:1],4,3bx-8[8:1]b,3,5bx,7,1/6x-1[8:1]b,,5bx-2[8:1],5,6bx-1[8:1]b,6,5bx-2[8:1],5,6bx-1[8:1]b,6,5bx,4,7/5h[4:1],,6bx,1/3,1/3-8[8:1]b,,4bx-7[8:1],4,3bx-8[8:1]b,3,4bx-7[8:1],4,3bx-8[8:1]b,3,4bx-7[8:1],4,3bx-8[8:1]b,3,6bx,6,1x/5x-2[8:1],,5/7,7,5/6-1[8:1],,
{4}6/3-7[8:1],3/8-2-4[8:1]*-6[8:1],8x,7<5[8:1]b/8>2[8:1]b,A8f/D1,,
{8}1-5[8:1]/2v4[8:1]b,1/2,,,7v5[8:1]/8-4[8:1]b,7/8,,,1b/2b,,2/3,3/4,4-1[8:1]b/5-8[8:1],,4b/5b,,
{16}2b/7b,,,3,4<8[4:1],,
{8}4,1,,2-5[8:1],3,
{16}8,,,7,5x>1[4:1],,
{8}5,8x,7bx,6hbx[4:1],,
{16}1h[16:3],,,4,2<6[4:1],,
{8}2,5,,4,4,3-8[8:1]b,2,5,,6-1[8:1],7,4,,
{16}2b/8b,,,3,4<8[4:1],,
{8}4,1,,2-5[8:1],3,
{16}8,,,7,5x>1[4:1],,
{8}5,6x,7x,7x,,1h[16:3]/6h[16:3],,5/2<7[8:1],3/4,6h[4:1],,5,5,
{16}7,8,,2,1,,3/8,,
{384}5xq1[4:1],4x>2[384:95]b,{64},{16},{6},
{16}A5f,
E

Re:MASTER


  • EXPERT譜面を追加しました。修正等ありましたらよろしくお願いします。 -- Sugar (2026-08-09 13:13:02)
  • MASTER譜面を追加しました。修正等ありましたらよろしくお願いします。 -- なぎさ (2026-08-10 22:07:08)
  • BASIC, ADVANCED譜面を追加しました。修正等ありましたらよろしくお願いします。 -- HS (2026-09-13 21:26:43)
名前:
コメント:

タグ:

+ タグ編集
  • タグ:
最終更新:2026年09月13日 21:26